找回密码

蓝光电影网

查看: 185|回复: 0

[UHD.HEVC] 生死时速/捍卫战警 Speed.1994.2160p.BluRay.REMUX.HEVC.DTS-HD.MA.5.1-FGT 55.64GB

[复制链接]
蓝光币
1082
发表于 2021-5-13 15:16:00 | 显示全部楼层 |阅读模式


◎译  名 生死时速/保卫战警(台)
◎片  名 Speed
◎年  代 1994
◎产  地 美国
◎类  别 行动 / 惊悚 / 犯罪 / 冒险
◎语  言 英语
◎上映日期 1994-06-10(美国)
◎IMDb评分  7.2/10 from 334880 users
◎IMDb链接  https://www.imdb.com/title/tt0111257/
◎豆瓣评分 8.1/10 from 105097 users
◎豆瓣链接 https://movie.douban.com/subject/1293167/
◎片  长 116分钟
◎导  演 扬·德·邦特 Jan de Bont
◎编  剧 格雷厄姆·约斯特 Graham Yost
◎主  演 基努·里维斯 Keanu Reeves
       桑德拉·布洛克 Sandra Bullock
       丹尼斯·霍珀 Dennis Hopper
       乔·莫顿 Joe Morton
       杰夫·丹尼尔斯 Jeff Daniels
       阿兰·卢克 Alan Ruck
       格伦·普拉默 Glenn Plummer
       丹尼尔·比利亚雷亚尔 Daniel Villarreal
       贝丝·格兰特 Beth Grant
       乔丹·朗德 Jordan Lund
       理查德·梅尔豪斯 Robert Mailhouse
       派特里克·费斯克勒 Patrick Fischler
       Patrick John Hurley
       Anne O'Sullivan
       博斯塔尔 Beau Starr
       约翰·卡波迪斯 John Capodice
       小托马斯·罗萨莱斯 Thomas Rosales Jr.
       詹姆斯·杜蒙特 James DuMont
       Antonio Mora
       Mark Kriski
       Dagny Hultgreen
       理查德·希夫 Richard Schiff
       桑迪·马丁 Sandy Martin
       Jim Mapp
       Loyda Ramos
       朱莉娅·维拉 Julia Vera
       Randy Algoe
       维罗尼卡·卡维特 Veronica Cartwright
       马克·戈登 Mark Gordon
       Craig Hosking
       J. David Jones
       Christopher C. Murphy
       迈克尔·塔姆布洛 Michael Tamburro
       Eddie Yansick
       弥尔顿·奎 Milton Quon
       沈晓谦 Xiaoqian Shen
       户田惠子 Keiko Toda
◎标  签 行动 | 美国 | KeanuReeves | 典范 | 美国电影 | 生死时速 | 犯罪 | 1994
◎简  介


  退休炸弹专家佩恩(丹尼斯?霍珀 Dennis Hopper  饰)因不满政府的退休政策,发生了报复社会的动机。他先是在电梯里安装炸弹,劫持人质勒索100万美圆赎金,但被特警杰克(基努?李维斯 Keanu Reeves 饰)撤除了炸弹,救出了人质。佩恩趁乱逃走。
  
  一计不成,佩恩并没有放弃,他继续他疯狂的计划。此次他炸毁了一辆公车,并在另一辆公车上安装了炸弹,只要该公车的时速跨越了50英里就不能再减速,否则就会引发爆炸。当杰克遇上这辆公车时,公车已经满载乘客行驶在高速公路上,时速也早已过了50英里。
  
  杰克是俗称的“胆生毛”,他冒险上了公车,和佩恩之间的生死时速起头了。
◎获奖情况
  第67届奥斯卡金像奖 ?(1995)
  最好剪辑(提名) 约翰·赖特
  最好音效剪辑 斯蒂芬·亨特·弗利克
  最好声响 格雷格·兰达克?/?大卫·麦克米兰?/?鲍勃·贝默尔?/?史蒂夫·马斯洛
  
  第48届英国电影学院奖 ?(1995)
  电影奖最好剪辑 约翰·赖特
  电影奖最好特别视觉结果(提名) 博伊德·谢尔米斯?/?罗恩·布林克曼?/?理查德·E·霍兰德尔?/?约翰·弗雷泽
  电影奖最好音效 格雷格·兰达克?/?大卫·麦克米兰?/?斯蒂芬·亨特·弗利克?/?史蒂夫·马斯洛?/?鲍勃·贝默尔
  
  第18届日本电影学院奖 ?(1995)
  最好外语片(提名)
  1. Video
  2. ID                                       : 1
  3. ID in the original source medium         : 4113 (0x1011)
  4. Format                                   : HEVC
  5. Format/Info                              : High Efficiency Video Coding
  6. Format profile                           : Main [email protected]@High
  7. HDR format                               : SMPTE ST 2086, HDR10 compatible
  8. Codec ID                                 : V_MPEGH/ISO/HEVC
  9. Duration                                 : 1 h 55 min
  10. Bit rate                                 : 59.6 Mb/s
  11. Width                                    : 3 840 pixels
  12. Height                                   : 2 160 pixels
  13. Display aspect ratio                     : 16:9
  14. Frame rate mode                          : Constant
  15. Frame rate                               : 23.976 (24000/1001/189150) FPS
  16. Color space                              : YUV
  17. Chroma subsampling                       : 4:2:0 (Type 2)
  18. Bit depth                                : 10 bits
  19. Bits/(Pixel*Frame)                       : 0.300
  20. Stream size                              : 48.2 GiB (87%)
  21. Writing library                          : ATEME Titan File 3.9.6 (4.9.6.2)        
  22. Language                                 : English
  23. Default                                  : No
  24. Forced                                   : No
  25. Color range                              : Limited
  26. Color primaries                          : BT.2020
  27. Transfer characteristics                 : PQ
  28. Matrix coefficients                      : BT.2020 non-constant
  29. Mastering display color primaries        : Display P3
  30. Mastering display luminance              : min: 0.0050 cd/m2, max: 1000 cd/m2
  31. Original source medium                   : Blu-ray

  32. Audio #1
  33. ID                                       : 2
  34. ID in the original source medium         : 4352 (0x1100)
  35. Format                                   : DTS XLL
  36. Format/Info                              : Digital Theater Systems
  37. Commercial name                          : DTS-HD Master Audio
  38. Codec ID                                 : A_DTS
  39. Duration                                 : 1 h 55 min
  40. Bit rate mode                            : Variable
  41. Bit rate                                 : 3 830 kb/s
  42. Channel(s)                               : 6 channels
  43. Channel layout                           : C L R Ls Rs LFE
  44. Sampling rate                            : 48.0 kHz
  45. Frame rate                               : 93.750 FPS (512 SPF)
  46. Bit depth                                : 24 bits
  47. Compression mode                         : Lossless
  48. Stream size                              : 3.10 GiB (6%)
  49. Title                                    : DTS-HD MA 5.1
  50. Language                                 : English
  51. Default                                  : Yes
  52. Forced                                   : No
  53. Original source medium                   : Blu-ray

  54. Audio #2
  55. ID                                       : 3
  56. Format                                   : AC-3
  57. Format/Info                              : Audio Coding 3
  58. Commercial name                          : Dolby Digital
  59. Codec ID                                 : A_AC3
  60. Duration                                 : 1 h 55 min
  61. Bit rate mode                            : Constant
  62. Bit rate                                 : 640 kb/s
  63. Channel(s)                               : 6 channels
  64. Channel layout                           : L R C LFE Ls Rs
  65. Sampling rate                            : 48.0 kHz
  66. Frame rate                               : 31.250 FPS (1536 SPF)
  67. Compression mode                         : Lossy
  68. Stream size                              : 531 MiB (1%)
  69. Title                                    : DD 5.1
  70. Language                                 : English
  71. Service kind                             : Complete Main
  72. Default                                  : No
  73. Forced                                   : No

  74. Audio #3
  75. ID                                       : 4
  76. ID in the original source medium         : 4353 (0x1101)
  77. Format                                   : AC-3
  78. Format/Info                              : Audio Coding 3
  79. Commercial name                          : Dolby Digital
  80. Codec ID                                 : A_AC3
  81. Duration                                 : 1 h 55 min
  82. Bit rate mode                            : Constant
  83. Bit rate                                 : 320 kb/s
  84. Channel(s)                               : 2 channels
  85. Channel layout                           : L R
  86. Sampling rate                            : 48.0 kHz
  87. Frame rate                               : 31.250 FPS (1536 SPF)
  88. Compression mode                         : Lossy
  89. Stream size                              : 265 MiB (0%)
  90. Title                                    : DD 2.0
  91. Language                                 : English
  92. Service kind                             : Complete Main
  93. Default                                  : No
  94. Forced                                   : No
  95. Original source medium                   : Blu-ray

  96. Audio #4
  97. ID                                       : 5
  98. ID in the original source medium         : 4354 (0x1102)
  99. Format                                   : DTS
  100. Format/Info                              : Digital Theater Systems
  101. Codec ID                                 : A_DTS
  102. Duration                                 : 1 h 55 min
  103. Bit rate mode                            : Constant
  104. Bit rate                                 : 1 509 kb/s
  105. Channel(s)                               : 6 channels
  106. Channel layout                           : C L R Ls Rs LFE
  107. Sampling rate                            : 48.0 kHz
  108. Frame rate                               : 93.750 FPS (512 SPF)
  109. Bit depth                                : 24 bits
  110. Compression mode                         : Lossy
  111. Stream size                              : 1.22 GiB (2%)
  112. Title                                    : DD 5.1
  113. Language                                 : French
  114. Default                                  : No
  115. Forced                                   : No
  116. Original source medium                   : Blu-ray

  117. Audio #5
  118. ID                                       : 6
  119. ID in the original source medium         : 4355 (0x1103)
  120. Format                                   : AC-3
  121. Format/Info                              : Audio Coding 3
  122. Commercial name                          : Dolby Digital
  123. Codec ID                                 : A_AC3
  124. Duration                                 : 1 h 55 min
  125. Bit rate mode                            : Constant
  126. Bit rate                                 : 448 kb/s
  127. Channel(s)                               : 6 channels
  128. Channel layout                           : L R C LFE Ls Rs
  129. Sampling rate                            : 48.0 kHz
  130. Frame rate                               : 31.250 FPS (1536 SPF)
  131. Compression mode                         : Lossy
  132. Stream size                              : 371 MiB (1%)
  133. Title                                    : DD 5.1
  134. Language                                 : Spanish
  135. Service kind                             : Complete Main
  136. Default                                  : No
  137. Forced                                   : No
  138. Original source medium                   : Blu-ray

  139. Audio #6
  140. ID                                       : 7
  141. ID in the original source medium         : 4356 (0x1104)
  142. Format                                   : DTS
  143. Format/Info                              : Digital Theater Systems
  144. Codec ID                                 : A_DTS
  145. Duration                                 : 1 h 55 min
  146. Bit rate mode                            : Constant
  147. Bit rate                                 : 1 509 kb/s
  148. Channel(s)                               : 6 channels
  149. Channel layout                           : C L R Ls Rs LFE
  150. Sampling rate                            : 48.0 kHz
  151. Frame rate                               : 93.750 FPS (512 SPF)
  152. Bit depth                                : 24 bits
  153. Compression mode                         : Lossy
  154. Stream size                              : 1.22 GiB (2%)
  155. Title                                    : DD 5.1
  156. Language                                 : German
  157. Default                                  : No
  158. Forced                                   : No
  159. Original source medium                   : Blu-ray

  160. Audio #7
  161. ID                                       : 8
  162. ID in the original source medium         : 4357 (0x1105)
  163. Format                                   : AC-3
  164. Format/Info                              : Audio Coding 3
  165. Commercial name                          : Dolby Digital
  166. Format settings                          : Dolby Surround
  167. Codec ID                                 : A_AC3
  168. Duration                                 : 1 h 55 min
  169. Bit rate mode                            : Constant
  170. Bit rate                                 : 224 kb/s
  171. Channel(s)                               : 2 channels
  172. Channel layout                           : L R
  173. Sampling rate                            : 48.0 kHz
  174. Frame rate                               : 31.250 FPS (1536 SPF)
  175. Compression mode                         : Lossy
  176. Stream size                              : 186 MiB (0%)
  177. Title                                    : DD 2.0
  178. Language                                 : Japanese
  179. Service kind                             : Complete Main
  180. Default                                  : No
  181. Forced                                   : No
  182. Original source medium                   : Blu-ray

  183. Audio #8
  184. ID                                       : 9
  185. ID in the original source medium         : 4358 (0x1106)
  186. Format                                   : AC-3
  187. Format/Info                              : Audio Coding 3
  188. Commercial name                          : Dolby Digital
  189. Codec ID                                 : A_AC3
  190. Duration                                 : 1 h 55 min
  191. Bit rate mode                            : Constant
  192. Bit rate                                 : 224 kb/s
  193. Channel(s)                               : 2 channels
  194. Channel layout                           : L R
  195. Sampling rate                            : 48.0 kHz
  196. Frame rate                               : 31.250 FPS (1536 SPF)
  197. Compression mode                         : Lossy
  198. Stream size                              : 186 MiB (0%)
  199. Title                                    : DD 2.0
  200. Language                                 : English
  201. Service kind                             : Complete Main
  202. Default                                  : No
  203. Forced                                   : No
  204. Original source medium                   : Blu-ray

  205. Audio #9
  206. ID                                       : 10
  207. ID in the original source medium         : 4359 (0x1107)
  208. Format                                   : AC-3
  209. Format/Info                              : Audio Coding 3
  210. Commercial name                          : Dolby Digital
  211. Codec ID                                 : A_AC3
  212. Duration                                 : 1 h 55 min
  213. Bit rate mode                            : Constant
  214. Bit rate                                 : 224 kb/s
  215. Channel(s)                               : 2 channels
  216. Channel layout                           : L R
  217. Sampling rate                            : 48.0 kHz
  218. Frame rate                               : 31.250 FPS (1536 SPF)
  219. Compression mode                         : Lossy
  220. Stream size                              : 186 MiB (0%)
  221. Title                                    : DD 2.0
  222. Language                                 : English
  223. Service kind                             : Complete Main
  224. Default                                  : No
  225. Forced                                   : No
  226. Original source medium                   : Blu-ray

  227. Text #1
  228. ID                                       : 11
  229. Format                                   : UTF-8
  230. Codec ID                                 : S_TEXT/UTF8
  231. Codec ID/Info                            : UTF-8 Plain Text
  232. Duration                                 : 1 h 51 min
  233. Bit rate                                 : 48 b/s
  234. Count of elements                        : 1081
  235. Stream size                              : 39.6 KiB (0%)
  236. Title                                    : English-SRT
  237. Language                                 : English
  238. Default                                  : Yes
  239. Forced                                   : No

  240. Text #2
  241. ID                                       : 12
  242. ID in the original source medium         : 4768 (0x12A0)
  243. Format                                   : PGS
  244. Muxing mode                              : zlib
  245. Codec ID                                 : S_HDMV/PGS
  246. Codec ID/Info                            : Picture based subtitle format used on BDs/HD-DVDs
  247. Duration                                 : 1 h 55 min
  248. Bit rate                                 : 38.8 kb/s
  249. Count of elements                        : 3406
  250. Stream size                              : 31.9 MiB (0%)
  251. Title                                    : English-PGS
  252. Language                                 : English
  253. Default                                  : No
  254. Forced                                   : No
  255. Original source medium                   : Blu-ray

  256. Text #3
  257. ID                                       : 13
  258. ID in the original source medium         : 4769 (0x12A1)
  259. Format                                   : PGS
  260. Muxing mode                              : zlib
  261. Codec ID                                 : S_HDMV/PGS
  262. Codec ID/Info                            : Picture based subtitle format used on BDs/HD-DVDs
  263. Duration                                 : 1 h 46 min
  264. Bit rate                                 : 24.8 kb/s
  265. Count of elements                        : 2292
  266. Stream size                              : 18.9 MiB (0%)
  267. Title                                    : French-PGS
  268. Language                                 : French
  269. Default                                  : No
  270. Forced                                   : No
  271. Original source medium                   : Blu-ray

  272. Text #4
  273. ID                                       : 14
  274. ID in the original source medium         : 4770 (0x12A2)
  275. Format                                   : PGS
  276. Muxing mode                              : zlib
  277. Codec ID                                 : S_HDMV/PGS
  278. Codec ID/Info                            : Picture based subtitle format used on BDs/HD-DVDs
  279. Duration                                 : 1 h 49 min
  280. Bit rate                                 : 26.8 kb/s
  281. Count of elements                        : 2302
  282. Stream size                              : 21.0 MiB (0%)
  283. Title                                    : Spanish-PGS
  284. Language                                 : Spanish
  285. Default                                  : No
  286. Forced                                   : No
  287. Original source medium                   : Blu-ray

  288. Text #5
  289. ID                                       : 15
  290. ID in the original source medium         : 4771 (0x12A3)
  291. Format                                   : PGS
  292. Muxing mode                              : zlib
  293. Codec ID                                 : S_HDMV/PGS
  294. Codec ID/Info                            : Picture based subtitle format used on BDs/HD-DVDs
  295. Duration                                 : 1 h 47 min
  296. Bit rate                                 : 29.8 kb/s
  297. Count of elements                        : 1980
  298. Stream size                              : 22.8 MiB (0%)
  299. Title                                    : German-PGS
  300. Language                                 : German
  301. Default                                  : No
  302. Forced                                   : No
  303. Original source medium                   : Blu-ray

  304. Text #6
  305. ID                                       : 16
  306. ID in the original source medium         : 4772 (0x12A4)
  307. Format                                   : PGS
  308. Muxing mode                              : zlib
  309. Codec ID                                 : S_HDMV/PGS
  310. Codec ID/Info                            : Picture based subtitle format used on BDs/HD-DVDs
  311. Duration                                 : 1 h 51 min
  312. Bit rate                                 : 17.8 kb/s
  313. Count of elements                        : 2210
  314. Stream size                              : 14.2 MiB (0%)
  315. Title                                    : Japanese-PGS
  316. Language                                 : Japanese
  317. Default                                  : No
  318. Forced                                   : No
  319. Original source medium                   : Blu-ray

  320. Text #7
  321. ID                                       : 17
  322. ID in the original source medium         : 4773 (0x12A5)
  323. Format                                   : PGS
  324. Muxing mode                              : zlib
  325. Codec ID                                 : S_HDMV/PGS
  326. Codec ID/Info                            : Picture based subtitle format used on BDs/HD-DVDs
  327. Duration                                 : 1 h 55 min
  328. Bit rate                                 : 58.4 kb/s
  329. Count of elements                        : 3622
  330. Stream size                              : 48.2 MiB (0%)
  331. Title                                    : English-COMMENTARY-PGS
  332. Language                                 : English
  333. Default                                  : No
  334. Forced                                   : No
  335. Original source medium                   : Blu-ray

  336. Text #8
  337. ID                                       : 18
  338. ID in the original source medium         : 4774 (0x12A6)
  339. Format                                   : PGS
  340. Muxing mode                              : zlib
  341. Codec ID                                 : S_HDMV/PGS
  342. Codec ID/Info                            : Picture based subtitle format used on BDs/HD-DVDs
  343. Duration                                 : 1 h 54 min
  344. Bit rate                                 : 44.0 kb/s
  345. Count of elements                        : 2700
  346. Stream size                              : 35.9 MiB (0%)
  347. Title                                    : French-COMMENTARY-PGS
  348. Language                                 : French
  349. Default                                  : No
  350. Forced                                   : No
  351. Original source medium                   : Blu-ray

  352. Text #9
  353. ID                                       : 19
  354. ID in the original source medium         : 4775 (0x12A7)
  355. Format                                   : PGS
  356. Muxing mode                              : zlib
  357. Codec ID                                 : S_HDMV/PGS
  358. Codec ID/Info                            : Picture based subtitle format used on BDs/HD-DVDs
  359. Duration                                 : 1 h 54 min
  360. Bit rate                                 : 57.6 kb/s
  361. Count of elements                        : 3552
  362. Stream size                              : 47.0 MiB (0%)
  363. Title                                    : Spanish-COMMENTARY-PGS
  364. Language                                 : Spanish
  365. Default                                  : No
  366. Forced                                   : No
  367. Original source medium                   : Blu-ray

  368. Text #10
  369. ID                                       : 20
  370. ID in the original source medium         : 4776 (0x12A8)
  371. Format                                   : PGS
  372. Muxing mode                              : zlib
  373. Codec ID                                 : S_HDMV/PGS
  374. Codec ID/Info                            : Picture based subtitle format used on BDs/HD-DVDs
  375. Duration                                 : 1 h 54 min
  376. Bit rate                                 : 43.6 kb/s
  377. Count of elements                        : 2722
  378. Stream size                              : 35.6 MiB (0%)
  379. Title                                    : German-COMMENTARY-PGS
  380. Language                                 : German
  381. Default                                  : No
  382. Forced                                   : No
  383. Original source medium                   : Blu-ray

  384. Text #11
  385. ID                                       : 21
  386. ID in the original source medium         : 4777 (0x12A9)
  387. Format                                   : PGS
  388. Muxing mode                              : zlib
  389. Codec ID                                 : S_HDMV/PGS
  390. Codec ID/Info                            : Picture based subtitle format used on BDs/HD-DVDs
  391. Duration                                 : 1 h 55 min
  392. Bit rate                                 : 30.4 kb/s
  393. Count of elements                        : 2268
  394. Stream size                              : 25.1 MiB (0%)
  395. Title                                    : Japanese-COMMENTARY-PGS
  396. Language                                 : Japanese
  397. Default                                  : No
  398. Forced                                   : No
  399. Original source medium                   : Blu-ray

  400. Text #12
  401. ID                                       : 22
  402. ID in the original source medium         : 4778 (0x12AA)
  403. Format                                   : PGS
  404. Muxing mode                              : zlib
  405. Codec ID                                 : S_HDMV/PGS
  406. Codec ID/Info                            : Picture based subtitle format used on BDs/HD-DVDs
  407. Duration                                 : 1 h 55 min
  408. Bit rate                                 : 73.0 kb/s
  409. Count of elements                        : 4168
  410. Stream size                              : 60.5 MiB (0%)
  411. Title                                    : English-COMMENTARY-PGS
  412. Language                                 : English
  413. Default                                  : No
  414. Forced                                   : No
  415. Original source medium                   : Blu-ray

  416. Text #13
  417. ID                                       : 23
  418. ID in the original source medium         : 4779 (0x12AB)
  419. Format                                   : PGS
  420. Muxing mode                              : zlib
  421. Codec ID                                 : S_HDMV/PGS
  422. Codec ID/Info                            : Picture based subtitle format used on BDs/HD-DVDs
  423. Duration                                 : 1 h 55 min
  424. Bit rate                                 : 52.7 kb/s
  425. Count of elements                        : 3656
  426. Stream size                              : 43.7 MiB (0%)
  427. Title                                    : French-COMMENTARY-PGS
  428. Language                                 : French
  429. Default                                  : No
  430. Forced                                   : No
  431. Original source medium                   : Blu-ray

  432. Text #14
  433. ID                                       : 24
  434. ID in the original source medium         : 4780 (0x12AC)
  435. Format                                   : PGS
  436. Muxing mode                              : zlib
  437. Codec ID                                 : S_HDMV/PGS
  438. Codec ID/Info                            : Picture based subtitle format used on BDs/HD-DVDs
  439. Duration                                 : 1 h 55 min
  440. Bit rate                                 : 65.7 kb/s
  441. Count of elements                        : 3864
  442. Stream size                              : 54.4 MiB (0%)
  443. Title                                    : Spanish-COMMENTARY-PGS
  444. Language                                 : Spanish
  445. Default                                  : No
  446. Forced                                   : No
  447. Original source medium                   : Blu-ray

  448. Text #15
  449. ID                                       : 25
  450. ID in the original source medium         : 4781 (0x12AD)
  451. Format                                   : PGS
  452. Muxing mode                              : zlib
  453. Codec ID                                 : S_HDMV/PGS
  454. Codec ID/Info                            : Picture based subtitle format used on BDs/HD-DVDs
  455. Duration                                 : 1 h 55 min
  456. Bit rate                                 : 55.0 kb/s
  457. Count of elements                        : 3246
  458. Stream size                              : 45.6 MiB (0%)
  459. Title                                    : German-COMMENTARY-PGS
  460. Language                                 : German
  461. Default                                  : No
  462. Forced                                   : No
  463. Original source medium                   : Blu-ray

  464. Text #16
  465. ID                                       : 26
  466. ID in the original source medium         : 4782 (0x12AE)
  467. Format                                   : PGS
  468. Muxing mode                              : zlib
  469. Codec ID                                 : S_HDMV/PGS
  470. Codec ID/Info                            : Picture based subtitle format used on BDs/HD-DVDs
  471. Duration                                 : 1 h 55 min
  472. Bit rate                                 : 36.5 kb/s
  473. Count of elements                        : 3759
  474. Stream size                              : 30.2 MiB (0%)
  475. Title                                    : Japanese-COMMENTARY-PGS
  476. Language                                 : Japanese
  477. Default                                  : No
  478. Forced                                   : No
  479. Original source medium                   : Blu-ray

  480. Text #17
  481. ID                                       : 27
  482. ID in the original source medium         : 4783 (0x12AF)
  483. Format                                   : PGS
  484. Muxing mode                              : zlib
  485. Codec ID                                 : S_HDMV/PGS
  486. Codec ID/Info                            : Picture based subtitle format used on BDs/HD-DVDs
  487. Duration                                 : 1 h 4 min
  488. Bit rate                                 : 55 b/s
  489. Count of elements                        : 4
  490. Stream size                              : 26.2 KiB (0%)
  491. Title                                    : French-FORCED-PGS
  492. Language                                 : French
  493. Default                                  : No
  494. Forced                                   : No
  495. Original source medium                   : Blu-ray

  496. Text #18
  497. ID                                       : 28
  498. ID in the original source medium         : 4784 (0x12B0)
  499. Format                                   : PGS
  500. Muxing mode                              : zlib
  501. Codec ID                                 : S_HDMV/PGS
  502. Codec ID/Info                            : Picture based subtitle format used on BDs/HD-DVDs
  503. Duration                                 : 1 h 6 min
  504. Bit rate                                 : 95 b/s
  505. Count of elements                        : 6
  506. Stream size                              : 46.8 KiB (0%)
  507. Title                                    : Spanish-FORCED-PGS
  508. Language                                 : Spanish
  509. Default                                  : No
  510. Forced                                   : No
  511. Original source medium                   : Blu-ray

  512. Text #19
  513. ID                                       : 29
  514. ID in the original source medium         : 4785 (0x12B1)
  515. Format                                   : PGS
  516. Muxing mode                              : zlib
  517. Codec ID                                 : S_HDMV/PGS
  518. Codec ID/Info                            : Picture based subtitle format used on BDs/HD-DVDs
  519. Duration                                 : 1 h 43 min
  520. Bit rate                                 : 91 b/s
  521. Count of elements                        : 14
  522. Stream size                              : 69.4 KiB (0%)
  523. Title                                    : German-FORCED-PGS
  524. Language                                 : German
  525. Default                                  : No
  526. Forced                                   : No
  527. Original source medium                   : Blu-ray

  528. Text #20
  529. ID                                       : 30
  530. ID in the original source medium         : 4786 (0x12B2)
  531. Format                                   : PGS
  532. Muxing mode                              : zlib
  533. Codec ID                                 : S_HDMV/PGS
  534. Codec ID/Info                            : Picture based subtitle format used on BDs/HD-DVDs
  535. Duration                                 : 1 h 26 min
  536. Bit rate                                 : 1 203 b/s
  537. Count of elements                        : 94
  538. Stream size                              : 762 KiB (0%)
  539. Title                                    : Japanese-FORCED-PGS
  540. Language                                 : Japanese
  541. Default                                  : No
  542. Forced                                   : No
  543. Original source medium                   : Blu-ray

  544. Menu
  545. 00:00:00.000                             : Chapter 01
  546. 00:04:20.218                             : Chapter 02
  547. 00:06:04.947                             : Chapter 03
  548. 00:08:27.757                             : Chapter 04
  549. 00:11:18.552                             : Chapter 05
  550. 00:15:24.381                             : Chapter 06
  551. 00:17:38.891                             : Chapter 07
  552. 00:23:22.484                             : Chapter 08
  553. 00:26:44.436                             : Chapter 09
  554. 00:31:02.443                             : Chapter 10
  555. 00:35:06.187                             : Chapter 11
  556. 00:40:24.255                             : Chapter 12
  557. 00:44:33.420                             : Chapter 13
  558. 00:48:47.174                             : Chapter 14
  559. 00:53:09.853                             : Chapter 15
  560. 00:55:44.883                             : Chapter 16
  561. 00:58:52.487                             : Chapter 17
  562. 01:02:20.111                             : Chapter 18
  563. 01:07:38.971                             : Chapter 19
  564. 01:08:55.047                             : Chapter 20
  565. 01:11:52.182                             : Chapter 21
  566. 01:15:17.513                             : Chapter 22
  567. 01:15:41.036                             : Chapter 23
  568. 01:19:33.935                             : Chapter 24
  569. 01:23:28.253                             : Chapter 25
  570. 01:27:05.303                             : Chapter 26
  571. 01:32:57.863                             : Chapter 27
  572. 01:37:06.403                             : Chapter 28
  573. 01:40:28.897                             : Chapter 29
  574. 01:42:20.467                             : Chapter 30
  575. 01:46:06.401                             : Chapter 31
  576. 01:50:06.933                             : Chapter 32
复制代码




                                       
                                       

                                       
                                       
                                       




回复

使用道具 举报

懒得打字嘛,点击右侧快捷回复 【右侧内容,后台自定义】
您需要登录后才可以回帖 登录 | 立即加入

本版积分规则

Archiver|小黑屋| 蓝光电影网 |网站地图

Copyright © 2021 Comsenz Inc. Powered by 蓝光电影网

蓝光电影网

本站内容由用户自主分享和转载自互联网,转载目的在于传递更多信息,并不代表本网赞同其观点和对其真实性负责。

如有侵权、违反国家法律政策行为,请联系我们,我们会第一时间及时清除和处理!

举报反馈邮箱:[email protected]

快速回复 返回顶部 返回列表