找回密码

蓝光电影网

查看: 126|回复: 0

[2160p] 伦敦陷落/全面攻占2:伦敦救援 London.Has.Fallen.2016.2160p.BluRay.x264.8bit.SDR.DTS-HD.MA.5.1-SWTYBLZ 16.76GB

[复制链接]
蓝光币
1084
发表于 2020-9-28 09:40:29 | 显示全部楼层 |阅读模式


◎译  名 伦敦沦陷/周全攻占2:伦敦救济(台)/白宫沦亡2:伦敦沦亡(港)
◎片  名 London Has Fallen
◎年  代 2016
◎产  地 英国,美国,保加利亚
◎类  别 行动 / 惊悚 / 犯罪
◎语  言 英语,意大利语,法语,日语
◎上映日期 2016-03-04(美国/英国) / 2016-04-08(中国大陆)
◎IMDb评分  5.9/10 from 141986 users
◎IMDb链接  https://www.imdb.com/title/tt3300542/
◎豆瓣评分 6.3/10 from 89852 users
◎豆瓣链接 https://movie.douban.com/subject/25757186/
◎片  长 98分钟(中国大陆)
◎导  演 巴巴克·纳加非 Babak Najafi
◎编  剧 克赖顿·罗森博格 Creighton Rothenberger / 凯特琳·贝内迪克特 Katrin Benedikt / 克里斯蒂安·古德加斯特 Christian Gudegast / 查德·圣·约翰 Chad St. John
◎主  演 杰拉德·巴特勒 Gerard Butler
       艾伦·艾克哈特 Aaron Eckhart
       摩根·弗里曼 Morgan Freeman
       阿隆·阿布布尔 Alon Aboutboul
       安吉拉·贝塞特 Angela Bassett
       罗伯特·福斯特 Robert Forster
       梅丽莎·里奥 Melissa Leo
       拉达·米切尔 Radha Mitchell
       肖恩·奥布赖恩 Sean O'Bryan
       瓦利德·祖伊特 Waleed Zuaiter
       夏洛特·莱利 Charlotte Riley
       杰基·厄尔·哈利 Jackie Earle Haley
       科林·萨蒙 Colin Salmon
       帕特里克·肯尼迪 Patrick Kennedy
       麦赫迪·德比 Mehdi Dehbi
       朱利安·科斯托夫 Julian Kostov
       安东·波利亚佐夫 Anton Poriazov
       什瓦妮·盖伊 Shivani Ghai
       迈克尔·怀德曼 Michael Wildman
       佩妮·唐尼 Penny Downie
       Deborah Grant
       特伦斯·比斯利 Terence Beesley
       蒂姆·伍德沃德 Tim Woodward
       艾尔莎·莫利安 Elsa Mollien
       张欣 Xin Zhang
       豪尔赫·莱昂·马丁内斯 Jorge Leon Martinez
       安德鲁·普利文 Andrew Pleavin
◎标  签 行动 | 美国 | 犯罪 | 2016 | 英国 | 伦敦 | 暴力 | 反恐
◎简  介


  班宁(杰拉德·巴特勒 Gerard Butler 饰)是美国特勤局的奸细,比来,他接到了一个重要的使命,那就是联手局长琳(安吉拉·贝塞特 Angela Bassett 饰),护送总统本杰明(艾伦·艾克哈特 Aaron Eckhart 饰)前往伦敦圣保罗教堂,加入英国辅弼的葬礼。
  
  英国辅弼死得蹊跷,班宁和琳晓得,他们的路程一定遭到了犯警份子的亲近关注,与此同时,在葬礼上,列国领袖均有列席,伦敦这座富贵靓丽的城市霎时候成为了天下关注的焦点。果不其然,刺客们潜伏在暗处期待着机会,国家带领人频频遭到伏击,伦敦地标修建亦不能幸免于难,整座城市堕入了紊乱和瘫痪当中。而对于班宁来说,最要紧的使命,即是护送总统,回到国内。
◎获奖情况
  第37届金酸莓奖 ?(2017)
  最差男配角(提名) 杰拉德·巴特勒
  
  第3届豆瓣电影年度榜单 ?(2016)
  4月最受关注电影(提名)
  1. Video
  2. ID                                       : 1
  3. Format                                   : AVC
  4. Format/Info                              : Advanced Video Codec
  5. Format profile                           : [email protected]
  6. Format settings                          : CABAC / 5 Ref Frames
  7. Format settings, CABAC                   : Yes
  8. Format settings, Reference frames        : 5 frames
  9. Codec ID                                 : V_MPEG4/ISO/AVC
  10. Duration                                 : 1 h 39 min
  11. Bit rate                                 : 19.8 Mb/s
  12. Width                                    : 3 840 pixels
  13. Height                                   : 1 608 pixels
  14. Display aspect ratio                     : 2.40:1
  15. Frame rate mode                          : Constant
  16. Frame rate                               : 24.000 FPS
  17. Color space                              : YUV
  18. Chroma subsampling                       : 4:2:0
  19. Bit depth                                : 8 bits
  20. Scan type                                : Progressive
  21. Bits/(Pixel*Frame)                       : 0.133
  22. Stream size                              : 13.7 GiB (82%)
  23. Title                                    : London.Has.Fallen.2016.2160p.BluRay.x264.8bit.SDR.DTS-HD.MA.5.1-SWTYBLZ
  24. Writing library                          : x264 core 157 r2935 545de2f
  25. Encoding settings                        : cabac=1 / ref=5 / deblock=1:-1:-1 / analyse=0x3:0x113 / me=umh / subme=10 / psy=1 / psy_rd=1.00:0.15 / mixed_ref=1 / me_range=48 / chroma_me=1 / trellis=2 / 8x8dct=1 / cqm=0 / deadzone=21,11 / fast_pskip=1 / chroma_qp_offset=-3 / threads=48 / lookahead_threads=4 / sliced_threads=0 / nr=0 / decimate=0 / interlaced=0 / bluray_compat=0 / constrained_intra=0 / bframes=3 / b_pyramid=2 / b_adapt=2 / b_bias=0 / direct=3 / weightb=1 / open_gop=0 / weightp=2 / keyint=250 / keyint_min=23 / scenecut=40 / intra_refresh=0 / rc_lookahead=50 / rc=crf / mbtree=1 / crf=18.0 / qcomp=0.60 / qpmin=0 / qpmax=69 / qpstep=4 / ip_ratio=1.40 / aq=1:1.00
  26. Default                                  : Yes
  27. Forced                                   : No
  28. Audio #1
  29. ID                                       : 2
  30. Format                                   : DTS XLL
  31. Format/Info                              : Digital Theater Systems
  32. Commercial name                          : DTS-HD Master Audio
  33. Codec ID                                 : A_DTS
  34. Duration                                 : 1 h 39 min
  35. Bit rate mode                            : Variable
  36. Bit rate                                 : 3 660 kb/s
  37. Channel(s)                               : 6 channels
  38. Channel layout                           : C L R Ls Rs LFE
  39. Sampling rate                            : 48.0 kHz
  40. Frame rate                               : 93.750 FPS (512 SPF)
  41. Bit depth                                : 24 bits
  42. Compression mode                         : Lossless
  43. Stream size                              : 2.54 GiB (15%)
  44. Title                                    : London.Has.Fallen.2016.2160p.BluRay.x264.8bit.SDR.DTS-HD.MA.5.1-SWTYBLZ
  45. Language                                 : English
  46. Default                                  : Yes
  47. Forced                                   : No
  48. Audio #2
  49. ID                                       : 3
  50. Format                                   : AC-3
  51. Format/Info                              : Audio Coding 3
  52. Commercial name                          : Dolby Digital
  53. Codec ID                                 : A_AC3
  54. Duration                                 : 1 h 39 min
  55. Bit rate mode                            : Constant
  56. Bit rate                                 : 640 kb/s
  57. Channel(s)                               : 6 channels
  58. Channel layout                           : L R C LFE Ls Rs
  59. Sampling rate                            : 48.0 kHz
  60. Frame rate                               : 31.250 FPS (1536 SPF)
  61. Compression mode                         : Lossy
  62. Stream size                              : 454 MiB (3%)
  63. Title                                    : London.Has.Fallen.2016.2160p.BluRay.x264.8bit.SDR.DTS-HD.MA.5.1-SWTYBLZ
  64. Language                                 : English
  65. Service kind                             : Complete Main
  66. Default                                  : No
  67. Forced                                   : No
  68. Text #1
  69. ID                                       : 4
  70. Format                                   : UTF-8
  71. Codec ID                                 : S_TEXT/UTF8
  72. Codec ID/Info                            : UTF-8 Plain Text
  73. Duration                                 : 1 h 16 min
  74. Bit rate                                 : 0 b/s
  75. Count of elements                        : 14
  76. Stream size                              : 320 Bytes (0%)
  77. Title                                    : English-FORCED-SRT
  78. Language                                 : English
  79. Default                                  : Yes
  80. Forced                                   : No
  81. Text #2
  82. ID                                       : 5
  83. Format                                   : UTF-8
  84. Codec ID                                 : S_TEXT/UTF8
  85. Codec ID/Info                            : UTF-8 Plain Text
  86. Duration                                 : 1 h 37 min
  87. Bit rate                                 : 44 b/s
  88. Count of elements                        : 1257
  89. Stream size                              : 32.2 KiB (0%)
  90. Title                                    : English-SRT
  91. Language                                 : English
  92. Default                                  : No
  93. Forced                                   : No
  94. Text #3
  95. ID                                       : 6
  96. Format                                   : PGS
  97. Muxing mode                              : zlib
  98. Codec ID                                 : S_HDMV/PGS
  99. Codec ID/Info                            : Picture based subtitle format used on BDs/HD-DVDs
  100. Duration                                 : 1 h 38 min
  101. Bit rate                                 : 20.8 kb/s
  102. Count of elements                        : 1904
  103. Stream size                              : 14.6 MiB (0%)
  104. Title                                    : German-PGS
  105. Language                                 : German
  106. Default                                  : No
  107. Forced                                   : No
  108. Text #4
  109. ID                                       : 7
  110. Format                                   : PGS
  111. Muxing mode                              : zlib
  112. Codec ID                                 : S_HDMV/PGS
  113. Codec ID/Info                            : Picture based subtitle format used on BDs/HD-DVDs
  114. Duration                                 : 1 h 38 min
  115. Bit rate                                 : 27.1 kb/s
  116. Count of elements                        : 3070
  117. Stream size                              : 19.1 MiB (0%)
  118. Title                                    : English-PGS
  119. Language                                 : English
  120. Default                                  : No
  121. Forced                                   : No
  122. Text #5
  123. ID                                       : 8
  124. Format                                   : PGS
  125. Muxing mode                              : zlib
  126. Codec ID                                 : S_HDMV/PGS
  127. Codec ID/Info                            : Picture based subtitle format used on BDs/HD-DVDs
  128. Duration                                 : 1 h 36 min
  129. Bit rate                                 : 454 b/s
  130. Count of elements                        : 46
  131. Stream size                              : 322 KiB (0%)
  132. Title                                    : GERMAN-FORCED-PGS
  133. Language                                 : German
  134. Default                                  : No
  135. Forced                                   : No
  136. Text #6
  137. ID                                       : 9
  138. Format                                   : PGS
  139. Muxing mode                              : zlib
  140. Codec ID                                 : S_HDMV/PGS
  141. Codec ID/Info                            : Picture based subtitle format used on BDs/HD-DVDs
  142. Duration                                 : 1 h 16 min
  143. Bit rate                                 : 277 b/s
  144. Count of elements                        : 28
  145. Stream size                              : 156 KiB (0%)
  146. Title                                    : English-FORCED-PGS
  147. Language                                 : English
  148. Default                                  : No
  149. Forced                                   : No
  150. Menu
  151. 00:00:00.000                             : en:Chapter 01
  152. 00:10:36.125                             : en:Chapter 02
  153. 00:21:12.083                             : en:Chapter 03
  154. 00:33:52.125                             : en:Chapter 04
  155. 00:45:26.500                             : en:Chapter 05
  156. 00:57:35.583                             : en:Chapter 06
  157. 01:08:43.416                             : en:Chapter 07
  158. 01:17:54.666                             : en:Chapter 08
  159. 01:32:00.666                             : en:Chapter 09
复制代码










                                       
                                       

                                       
                                       
                                       




回复

使用道具 举报

懒得打字嘛,点击右侧快捷回复 【右侧内容,后台自定义】
您需要登录后才可以回帖 登录 | 立即加入

本版积分规则

Archiver|小黑屋| 蓝光电影网 |网站地图

Copyright © 2021 Comsenz Inc. Powered by 蓝光电影网

蓝光电影网

本站内容由用户自主分享和转载自互联网,转载目的在于传递更多信息,并不代表本网赞同其观点和对其真实性负责。

如有侵权、违反国家法律政策行为,请联系我们,我们会第一时间及时清除和处理!

举报反馈邮箱:[email protected]

快速回复 返回顶部 返回列表