找回密码

蓝光电影网

查看: 142|回复: 0

[UHD.HEVC] 大鱼/大智若鱼 Big.Fish.2003.2160p.BluRay.REMUX.HEVC.DTS-HD.MA.TrueHD.7.1.Atmos-FGT 75.32GB

[复制链接]
蓝光币
1084
发表于 2021-5-13 15:06:55 | 显示全部楼层 |阅读模式


◎译  名 大鱼/大智若鱼(台)/大鱼奇缘(港)/大鱼爸爸
◎片  名 Big Fish
◎年  代 2003
◎产  地 美国
◎类  别 剧情 / 家庭 / 奇异 / 冒险
◎语  言 英语,法语,俄语,粤语,汉语普通话
◎上映日期 2003-12-04(纽约首映) / 2004-01-09(美国)
◎IMDb评分  8/10 from 419479 users
◎IMDb链接  https://www.imdb.com/title/tt0319061/
◎豆瓣评分 8.8/10 from 471613 users
◎豆瓣链接 https://movie.douban.com/subject/1291545/
◎片  长 125 分钟
◎导  演 蒂姆·波顿 Tim Burton
◎编  剧 约翰·奥古斯特 John August
◎主  演 伊万·麦克格雷格 Ewan McGregor
       阿尔伯特·芬尼 Albert Finney
       比利·克鲁德普 Billy Crudup
       杰西卡·兰格 Jessica Lange
       海伦娜·伯翰·卡特 Helena Bonham Carter
       艾莉森·洛曼 Alison Lohman
       罗伯特·吉尔劳姆 Robert Guillaume
       玛丽昂·歌迪亚 Marion Cotillard
       马修·麦克格罗里 Matthew McGrory
       大卫·丹曼 David Denman
       米西·派勒 Missi Pyle
       卢顿·万恩怀特三世 Loudon Wainwright III
       艾达·泰 Ada Tai
       艾伦妮·泰 Arlene Tai
       史蒂夫·布西密 Steve Buscemi
       丹尼·德维托 Danny DeVito
       迪普·罗伊 Deep Roy
       海利·安妮·内尔森 Hailey Anne Nelson
       麦莉·赛勒斯 Miley Cyrus
       拉塞尔·霍奇金森 Russell Hodgkinson
       崔沃·加格农 Trevor Gagnon
       R.基斯·哈里斯 R. Keith Harris
       扎克·哈内尔 Zach Hanner
       加里·牛顿 Gary Newton
◎标  签 亲情 | 奇异 | 美国 | TimBurton | 童话 | 魔幻 | 剧情 | 温情
◎简  介


  爱德华(伊万·麦克格雷格 Ewan McGregor 饰)素性酷爱自在,成年以后,他挑选分开故乡,踏上了周游天下的旅程。一路上,爱德华碰见了各类百般希奇怪僻的脚色,履历了无数出色绝伦的的冒险,而他往后最大的爱好,就是向他人三言两语的反复报告他的这一段奇异旅程。
  
  威尔(比利·克鲁德普 Billy Crudup 饰)是爱德华的儿子,他并不相信父亲所报告的那些光怪陆离的故事,甚至对此感应非常腻烦。婚后,他同父亲中断了联系,一晃眼就是数年曩昔。当再次获得爱德华的消息之时,威尔才晓得父亲行将未几于人世,他决议去见爱德华最初一面。但是,这一次,威尔终究发现了隐藏在这些故事背后的奥秘和真相。
◎获奖情况
  第76届奥斯卡金像奖 ?(2004)
  最好原创配乐(提名) 丹尼·艾夫曼
  
  第61届金球奖 ?(2004)
  电影类最好音乐/笑剧片(提名)
  电影类最好男配角(提名) 阿尔伯特·芬尼
  电影类最好原创配乐(提名) 丹尼·艾夫曼
  电影类最好原创歌曲(提名) 艾迪·韦德
  
  第57届英国电影学院奖 ?(2004)
  电影奖最好影片(提名) 理查德·D·扎努克?/?丹·金克斯?/?布鲁斯·科恩
  电影奖最好导演(提名) 蒂姆·波顿
  电影奖最好男配角(提名) 阿尔伯特·芬尼
  电影奖最好改编剧本(提名) 约翰·奥古斯特
  电影奖最好化装/发型(提名) 琼·安·布兰克?/?保罗·勒布朗
  电影奖最好艺术指导(提名) 丹尼斯·加斯纳
  电影奖最好特别视觉结果(提名) 塞斯·毛里?/?林赛·麦克戈温?/?派迪·伊森?/?凯文·斯科特·麦克
  1. Video
  2. ID                                       : 1
  3. ID in the original source medium         : 4113 (0x1011)
  4. Format                                   : HEVC
  5. Format/Info                              : High Efficiency Video Coding
  6. Format profile                           : Main [email protected]@High
  7. HDR format                               : SMPTE ST 2086, HDR10 compatible
  8. Codec ID                                 : V_MPEGH/ISO/HEVC
  9. Duration                                 : 2 h 5 min
  10. Bit rate                                 : 63.8 Mb/s
  11. Width                                    : 3 840 pixels
  12. Height                                   : 2 160 pixels
  13. Display aspect ratio                     : 16:9
  14. Frame rate mode                          : Constant
  15. Frame rate                               : 23.976 (24000/1001/189150) FPS
  16. Color space                              : YUV
  17. Chroma subsampling                       : 4:2:0 (Type 2)
  18. Bit depth                                : 10 bits
  19. Bits/(Pixel*Frame)                       : 0.321
  20. Stream size                              : 55.8 GiB (74%)
  21. Language                                 : English
  22. Default                                  : No
  23. Forced                                   : No
  24. Color range                              : Limited
  25. Color primaries                          : BT.2020
  26. Transfer characteristics                 : PQ
  27. Matrix coefficients                      : BT.2020 non-constant
  28. Mastering display color primaries        : Display P3
  29. Mastering display luminance              : min: 0.0050 cd/m2, max: 4000 cd/m2
  30. Maximum Content Light Level              : 3301 cd/m2
  31. Maximum Frame-Average Light Level        : 349 cd/m2
  32. Original source medium                   : Blu-ray

  33. Audio #1
  34. ID                                       : 2
  35. ID in the original source medium         : 4352 (0x1100)
  36. Format                                   : MLP FBA 16-ch
  37. Format/Info                              : Meridian Lossless Packing FBA with 16-channel presentation
  38. Commercial name                          : Dolby TrueHD with Dolby Atmos
  39. Codec ID                                 : A_TRUEHD
  40. Duration                                 : 2 h 5 min
  41. Bit rate mode                            : Variable
  42. Bit rate                                 : 3 946 kb/s
  43. Maximum bit rate                         : 7 374 kb/s
  44. Channel(s)                               : 8 channels
  45. Channel layout                           : L R C LFE Ls Rs Lb Rb
  46. Sampling rate                            : 48.0 kHz
  47. Frame rate                               : 1 200.000 FPS (40 SPF)
  48. Bit depth                                : 24 bits
  49. Compression mode                         : Lossless
  50. Stream size                              : 3.45 GiB (5%)
  51. Title                                    : TrueHD 7.1 Atmos
  52. Language                                 : English
  53. Default                                  : Yes
  54. Forced                                   : No
  55. Original source medium                   : Blu-ray
  56. Number of dynamic objects                : 11
  57. Bed channel count                        : 1 channel
  58. Bed channel configuration                : LFE

  59. Audio #2
  60. ID                                       : 3
  61. Format                                   : DTS XLL
  62. Format/Info                              : Digital Theater Systems
  63. Commercial name                          : DTS-HD Master Audio
  64. Codec ID                                 : A_DTS
  65. Duration                                 : 2 h 5 min
  66. Bit rate mode                            : Variable
  67. Bit rate                                 : 3 954 kb/s
  68. Channel(s)                               : 8 channels
  69. Channel layout                           : C L R LFE Lb Rb Lss Rss
  70. Sampling rate                            : 48.0 kHz
  71. Frame rate                               : 93.750 FPS (512 SPF)
  72. Bit depth                                : 24 bits
  73. Compression mode                         : Lossless
  74. Stream size                              : 3.46 GiB (5%)
  75. Title                                    : DTS-HD MA 7.1
  76. Language                                 : English
  77. Default                                  : No
  78. Forced                                   : No

  79. Audio #3
  80. ID                                       : 4
  81. ID in the original source medium         : 4352 (0x1100)
  82. Format                                   : AC-3
  83. Format/Info                              : Audio Coding 3
  84. Commercial name                          : Dolby Digital
  85. Codec ID                                 : A_AC3
  86. Duration                                 : 2 h 5 min
  87. Bit rate mode                            : Constant
  88. Bit rate                                 : 640 kb/s
  89. Channel(s)                               : 6 channels
  90. Channel layout                           : L R C LFE Ls Rs
  91. Sampling rate                            : 48.0 kHz
  92. Frame rate                               : 31.250 FPS (1536 SPF)
  93. Compression mode                         : Lossy
  94. Stream size                              : 573 MiB (1%)
  95. Title                                    : DD 5.1
  96. Language                                 : English
  97. Service kind                             : Complete Main
  98. Default                                  : No
  99. Forced                                   : No
  100. Original source medium                   : Blu-ray

  101. Audio #4
  102. ID                                       : 5
  103. ID in the original source medium         : 4354 (0x1102)
  104. Format                                   : AC-3
  105. Format/Info                              : Audio Coding 3
  106. Commercial name                          : Dolby Digital
  107. Codec ID                                 : A_AC3
  108. Duration                                 : 2 h 5 min
  109. Bit rate mode                            : Constant
  110. Bit rate                                 : 640 kb/s
  111. Channel(s)                               : 6 channels
  112. Channel layout                           : L R C LFE Ls Rs
  113. Sampling rate                            : 48.0 kHz
  114. Frame rate                               : 31.250 FPS (1536 SPF)
  115. Compression mode                         : Lossy
  116. Stream size                              : 573 MiB (1%)
  117. Title                                    : DD 5.1
  118. Language                                 : Czech
  119. Service kind                             : Complete Main
  120. Default                                  : No
  121. Forced                                   : No
  122. Original source medium                   : Blu-ray

  123. Audio #5
  124. ID                                       : 6
  125. ID in the original source medium         : 4355 (0x1103)
  126. Format                                   : DTS XLL
  127. Format/Info                              : Digital Theater Systems
  128. Commercial name                          : DTS-HD Master Audio
  129. Codec ID                                 : A_DTS
  130. Duration                                 : 2 h 5 min
  131. Bit rate mode                            : Variable
  132. Bit rate                                 : 2 181 kb/s
  133. Channel(s)                               : 6 channels
  134. Channel layout                           : C L R Ls Rs LFE
  135. Sampling rate                            : 48.0 kHz
  136. Frame rate                               : 93.750 FPS (512 SPF)
  137. Bit depth                                : 16 bits
  138. Compression mode                         : Lossless
  139. Stream size                              : 1.91 GiB (3%)
  140. Title                                    : DTS-HD MA 5.1
  141. Language                                 : French
  142. Default                                  : No
  143. Forced                                   : No
  144. Original source medium                   : Blu-ray

  145. Audio #6
  146. ID                                       : 7
  147. ID in the original source medium         : 4356 (0x1104)
  148. Format                                   : DTS XLL
  149. Format/Info                              : Digital Theater Systems
  150. Commercial name                          : DTS-HD Master Audio
  151. Codec ID                                 : A_DTS
  152. Duration                                 : 2 h 5 min
  153. Bit rate mode                            : Variable
  154. Bit rate                                 : 2 184 kb/s
  155. Channel(s)                               : 6 channels
  156. Channel layout                           : C L R Ls Rs LFE
  157. Sampling rate                            : 48.0 kHz
  158. Frame rate                               : 93.750 FPS (512 SPF)
  159. Bit depth                                : 16 bits
  160. Compression mode                         : Lossless
  161. Stream size                              : 1.91 GiB (3%)
  162. Title                                    : DTS-HD MA 5.1
  163. Language                                 : German
  164. Default                                  : No
  165. Forced                                   : No
  166. Original source medium                   : Blu-ray

  167. Audio #7
  168. ID                                       : 8
  169. ID in the original source medium         : 4357 (0x1105)
  170. Format                                   : AC-3
  171. Format/Info                              : Audio Coding 3
  172. Commercial name                          : Dolby Digital
  173. Codec ID                                 : A_AC3
  174. Duration                                 : 2 h 5 min
  175. Bit rate mode                            : Constant
  176. Bit rate                                 : 640 kb/s
  177. Channel(s)                               : 6 channels
  178. Channel layout                           : L R C LFE Ls Rs
  179. Sampling rate                            : 48.0 kHz
  180. Frame rate                               : 31.250 FPS (1536 SPF)
  181. Compression mode                         : Lossy
  182. Stream size                              : 573 MiB (1%)
  183. Title                                    : DD 5.1
  184. Language                                 : Hungarian
  185. Service kind                             : Complete Main
  186. Default                                  : No
  187. Forced                                   : No
  188. Original source medium                   : Blu-ray

  189. Audio #8
  190. ID                                       : 9
  191. ID in the original source medium         : 4358 (0x1106)
  192. Format                                   : AC-3
  193. Format/Info                              : Audio Coding 3
  194. Commercial name                          : Dolby Digital
  195. Codec ID                                 : A_AC3
  196. Duration                                 : 2 h 5 min
  197. Bit rate mode                            : Constant
  198. Bit rate                                 : 640 kb/s
  199. Channel(s)                               : 6 channels
  200. Channel layout                           : L R C LFE Ls Rs
  201. Sampling rate                            : 48.0 kHz
  202. Frame rate                               : 31.250 FPS (1536 SPF)
  203. Compression mode                         : Lossy
  204. Stream size                              : 573 MiB (1%)
  205. Title                                    : DD 5.1
  206. Language                                 : Italian
  207. Service kind                             : Complete Main
  208. Default                                  : No
  209. Forced                                   : No
  210. Original source medium                   : Blu-ray

  211. Audio #9
  212. ID                                       : 10
  213. ID in the original source medium         : 4359 (0x1107)
  214. Format                                   : DTS XLL
  215. Format/Info                              : Digital Theater Systems
  216. Commercial name                          : DTS-HD Master Audio
  217. Codec ID                                 : A_DTS
  218. Duration                                 : 2 h 5 min
  219. Bit rate mode                            : Variable
  220. Bit rate                                 : 2 189 kb/s
  221. Channel(s)                               : 6 channels
  222. Channel layout                           : C L R Ls Rs LFE
  223. Sampling rate                            : 48.0 kHz
  224. Frame rate                               : 93.750 FPS (512 SPF)
  225. Bit depth                                : 16 bits
  226. Compression mode                         : Lossless
  227. Stream size                              : 1.91 GiB (3%)
  228. Title                                    : DTS-HD MA 5.1
  229. Language                                 : Japanese
  230. Default                                  : No
  231. Forced                                   : No
  232. Original source medium                   : Blu-ray

  233. Audio #10
  234. ID                                       : 11
  235. ID in the original source medium         : 4360 (0x1108)
  236. Format                                   : AC-3
  237. Format/Info                              : Audio Coding 3
  238. Commercial name                          : Dolby Digital
  239. Format settings                          : Dolby Surround
  240. Codec ID                                 : A_AC3
  241. Duration                                 : 2 h 5 min
  242. Bit rate mode                            : Constant
  243. Bit rate                                 : 192 kb/s
  244. Channel(s)                               : 2 channels
  245. Channel layout                           : L R
  246. Sampling rate                            : 48.0 kHz
  247. Frame rate                               : 31.250 FPS (1536 SPF)
  248. Compression mode                         : Lossy
  249. Stream size                              : 172 MiB (0%)
  250. Title                                    : DD 2.0
  251. Language                                 : Korean
  252. Service kind                             : Complete Main
  253. Default                                  : No
  254. Forced                                   : No
  255. Original source medium                   : Blu-ray

  256. Audio #11
  257. ID                                       : 12
  258. ID in the original source medium         : 4361 (0x1109)
  259. Format                                   : AC-3
  260. Format/Info                              : Audio Coding 3
  261. Commercial name                          : Dolby Digital
  262. Codec ID                                 : A_AC3
  263. Duration                                 : 2 h 5 min
  264. Bit rate mode                            : Constant
  265. Bit rate                                 : 640 kb/s
  266. Channel(s)                               : 6 channels
  267. Channel layout                           : L R C LFE Ls Rs
  268. Sampling rate                            : 48.0 kHz
  269. Frame rate                               : 31.250 FPS (1536 SPF)
  270. Compression mode                         : Lossy
  271. Stream size                              : 573 MiB (1%)
  272. Title                                    : DD 5.1
  273. Language                                 : Polish
  274. Service kind                             : Complete Main
  275. Default                                  : No
  276. Forced                                   : No
  277. Original source medium                   : Blu-ray

  278. Audio #12
  279. ID                                       : 13
  280. ID in the original source medium         : 4362 (0x110A)
  281. Format                                   : AC-3
  282. Format/Info                              : Audio Coding 3
  283. Commercial name                          : Dolby Digital
  284. Codec ID                                 : A_AC3
  285. Duration                                 : 2 h 5 min
  286. Bit rate mode                            : Constant
  287. Bit rate                                 : 640 kb/s
  288. Channel(s)                               : 6 channels
  289. Channel layout                           : L R C LFE Ls Rs
  290. Sampling rate                            : 48.0 kHz
  291. Frame rate                               : 31.250 FPS (1536 SPF)
  292. Compression mode                         : Lossy
  293. Stream size                              : 573 MiB (1%)
  294. Title                                    : DD 5.1
  295. Language                                 : Russian
  296. Service kind                             : Complete Main
  297. Default                                  : No
  298. Forced                                   : No
  299. Original source medium                   : Blu-ray

  300. Audio #13
  301. ID                                       : 14
  302. ID in the original source medium         : 4363 (0x110B)
  303. Format                                   : DTS XLL
  304. Format/Info                              : Digital Theater Systems
  305. Commercial name                          : DTS-HD Master Audio
  306. Codec ID                                 : A_DTS
  307. Duration                                 : 2 h 5 min
  308. Bit rate mode                            : Variable
  309. Bit rate                                 : 2 176 kb/s
  310. Channel(s)                               : 6 channels
  311. Channel layout                           : C L R Ls Rs LFE
  312. Sampling rate                            : 48.0 kHz
  313. Frame rate                               : 93.750 FPS (512 SPF)
  314. Bit depth                                : 16 bits
  315. Compression mode                         : Lossless
  316. Stream size                              : 1.90 GiB (3%)
  317. Title                                    : DTS-HD MA 5.1
  318. Language                                 : Spanish
  319. Default                                  : No
  320. Forced                                   : No
  321. Original source medium                   : Blu-ray

  322. Audio #14
  323. ID                                       : 15
  324. ID in the original source medium         : 4364 (0x110C)
  325. Format                                   : AC-3
  326. Format/Info                              : Audio Coding 3
  327. Commercial name                          : Dolby Digital
  328. Codec ID                                 : A_AC3
  329. Duration                                 : 2 h 5 min
  330. Bit rate mode                            : Constant
  331. Bit rate                                 : 640 kb/s
  332. Channel(s)                               : 6 channels
  333. Channel layout                           : L R C LFE Ls Rs
  334. Sampling rate                            : 48.0 kHz
  335. Frame rate                               : 31.250 FPS (1536 SPF)
  336. Compression mode                         : Lossy
  337. Stream size                              : 573 MiB (1%)
  338. Title                                    : DD 5.1
  339. Language                                 : Spanish
  340. Service kind                             : Complete Main
  341. Default                                  : No
  342. Forced                                   : No
  343. Original source medium                   : Blu-ray

  344. Audio #15
  345. ID                                       : 16
  346. ID in the original source medium         : 4365 (0x110D)
  347. Format                                   : AC-3
  348. Format/Info                              : Audio Coding 3
  349. Commercial name                          : Dolby Digital
  350. Codec ID                                 : A_AC3
  351. Duration                                 : 2 h 5 min
  352. Bit rate mode                            : Constant
  353. Bit rate                                 : 640 kb/s
  354. Channel(s)                               : 6 channels
  355. Channel layout                           : L R C LFE Ls Rs
  356. Sampling rate                            : 48.0 kHz
  357. Frame rate                               : 31.250 FPS (1536 SPF)
  358. Compression mode                         : Lossy
  359. Stream size                              : 573 MiB (1%)
  360. Title                                    : DD 5.1
  361. Language                                 : Thai
  362. Service kind                             : Complete Main
  363. Default                                  : No
  364. Forced                                   : No
  365. Original source medium                   : Blu-ray

  366. Text #1
  367. ID                                       : 17
  368. Format                                   : UTF-8
  369. Codec ID                                 : S_TEXT/UTF8
  370. Codec ID/Info                            : UTF-8 Plain Text
  371. Duration                                 : 1 h 59 min
  372. Bit rate                                 : 49 b/s
  373. Count of elements                        : 1125
  374. Stream size                              : 43.2 KiB (0%)
  375. Title                                    : English-SRT
  376. Language                                 : English
  377. Default                                  : Yes
  378. Forced                                   : No

  379. Text #2
  380. ID                                       : 18
  381. ID in the original source medium         : 4768 (0x12A0)
  382. Format                                   : PGS
  383. Muxing mode                              : zlib
  384. Codec ID                                 : S_HDMV/PGS
  385. Codec ID/Info                            : Picture based subtitle format used on BDs/HD-DVDs
  386. Duration                                 : 2 h 3 min
  387. Bit rate                                 : 33.0 kb/s
  388. Count of elements                        : 2945
  389. Stream size                              : 29.3 MiB (0%)
  390. Title                                    : SDH
  391. Language                                 : English
  392. Default                                  : No
  393. Forced                                   : No
  394. Original source medium                   : Blu-ray

  395. Text #3
  396. ID                                       : 19
  397. ID in the original source medium         : 4769 (0x12A1)
  398. Format                                   : PGS
  399. Muxing mode                              : zlib
  400. Codec ID                                 : S_HDMV/PGS
  401. Codec ID/Info                            : Picture based subtitle format used on BDs/HD-DVDs
  402. Duration                                 : 1 h 59 min
  403. Bit rate                                 : 28.9 kb/s
  404. Count of elements                        : 2258
  405. Stream size                              : 24.7 MiB (0%)
  406. Language                                 : English
  407. Default                                  : No
  408. Forced                                   : No
  409. Original source medium                   : Blu-ray

  410. Text #4
  411. ID                                       : 20
  412. ID in the original source medium         : 4770 (0x12A2)
  413. Format                                   : PGS
  414. Muxing mode                              : zlib
  415. Codec ID                                 : S_HDMV/PGS
  416. Codec ID/Info                            : Picture based subtitle format used on BDs/HD-DVDs
  417. Duration                                 : 2 h 3 min
  418. Bit rate                                 : 33.0 kb/s
  419. Count of elements                        : 2945
  420. Stream size                              : 29.3 MiB (0%)
  421. Title                                    : SDH
  422. Language                                 : English
  423. Default                                  : No
  424. Forced                                   : No
  425. Original source medium                   : Blu-ray

  426. Text #5
  427. ID                                       : 21
  428. ID in the original source medium         : 4771 (0x12A3)
  429. Format                                   : PGS
  430. Muxing mode                              : zlib
  431. Codec ID                                 : S_HDMV/PGS
  432. Codec ID/Info                            : Picture based subtitle format used on BDs/HD-DVDs
  433. Duration                                 : 1 h 59 min
  434. Bit rate                                 : 28.9 kb/s
  435. Count of elements                        : 2256
  436. Stream size                              : 24.7 MiB (0%)
  437. Language                                 : English
  438. Default                                  : No
  439. Forced                                   : No
  440. Original source medium                   : Blu-ray

  441. Text #6
  442. ID                                       : 22
  443. ID in the original source medium         : 4772 (0x12A4)
  444. Format                                   : PGS
  445. Muxing mode                              : zlib
  446. Codec ID                                 : S_HDMV/PGS
  447. Codec ID/Info                            : Picture based subtitle format used on BDs/HD-DVDs
  448. Duration                                 : 1 h 59 min
  449. Bit rate                                 : 14.1 kb/s
  450. Count of elements                        : 2328
  451. Stream size                              : 12.0 MiB (0%)
  452. Language                                 : Arabic
  453. Default                                  : No
  454. Forced                                   : No
  455. Original source medium                   : Blu-ray

  456. Text #7
  457. ID                                       : 23
  458. ID in the original source medium         : 4773 (0x12A5)
  459. Format                                   : PGS
  460. Muxing mode                              : zlib
  461. Codec ID                                 : S_HDMV/PGS
  462. Codec ID/Info                            : Picture based subtitle format used on BDs/HD-DVDs
  463. Duration                                 : 2 h 4 min
  464. Bit rate                                 : 23.1 kb/s
  465. Count of elements                        : 2331
  466. Stream size                              : 20.5 MiB (0%)
  467. Language                                 : Chinese
  468. Default                                  : No
  469. Forced                                   : No
  470. Original source medium                   : Blu-ray

  471. Text #8
  472. ID                                       : 24
  473. ID in the original source medium         : 4774 (0x12A6)
  474. Format                                   : PGS
  475. Muxing mode                              : zlib
  476. Codec ID                                 : S_HDMV/PGS
  477. Codec ID/Info                            : Picture based subtitle format used on BDs/HD-DVDs
  478. Duration                                 : 1 h 59 min
  479. Bit rate                                 : 23.7 kb/s
  480. Count of elements                        : 2328
  481. Stream size                              : 20.2 MiB (0%)
  482. Language                                 : Chinese
  483. Default                                  : No
  484. Forced                                   : No
  485. Original source medium                   : Blu-ray

  486. Text #9
  487. ID                                       : 25
  488. ID in the original source medium         : 4775 (0x12A7)
  489. Format                                   : PGS
  490. Muxing mode                              : zlib
  491. Codec ID                                 : S_HDMV/PGS
  492. Codec ID/Info                            : Picture based subtitle format used on BDs/HD-DVDs
  493. Duration                                 : 2 h 4 min
  494. Bit rate                                 : 23.5 kb/s
  495. Count of elements                        : 2282
  496. Stream size                              : 20.8 MiB (0%)
  497. Language                                 : Czech
  498. Default                                  : No
  499. Forced                                   : No
  500. Original source medium                   : Blu-ray

  501. Text #10
  502. ID                                       : 26
  503. ID in the original source medium         : 4775 (0x12A7)
  504. Format                                   : PGS
  505. Muxing mode                              : zlib
  506. Codec ID                                 : S_HDMV/PGS
  507. Codec ID/Info                            : Picture based subtitle format used on BDs/HD-DVDs
  508. Duration                                 : 1 h 44 min
  509. Bit rate                                 : 564 b/s
  510. Count of elements                        : 58
  511. Stream size                              : 431 KiB (0%)
  512. Language                                 : Czech
  513. Default                                  : No
  514. Forced                                   : No
  515. Original source medium                   : Blu-ray

  516. Text #11
  517. ID                                       : 27
  518. ID in the original source medium         : 4776 (0x12A8)
  519. Format                                   : PGS
  520. Muxing mode                              : zlib
  521. Codec ID                                 : S_HDMV/PGS
  522. Codec ID/Info                            : Picture based subtitle format used on BDs/HD-DVDs
  523. Duration                                 : 2 h 4 min
  524. Bit rate                                 : 26.1 kb/s
  525. Count of elements                        : 2288
  526. Stream size                              : 23.2 MiB (0%)
  527. Language                                 : Danish
  528. Default                                  : No
  529. Forced                                   : No
  530. Original source medium                   : Blu-ray

  531. Text #12
  532. ID                                       : 28
  533. ID in the original source medium         : 4777 (0x12A9)
  534. Format                                   : PGS
  535. Muxing mode                              : zlib
  536. Codec ID                                 : S_HDMV/PGS
  537. Codec ID/Info                            : Picture based subtitle format used on BDs/HD-DVDs
  538. Duration                                 : 1 h 59 min
  539. Bit rate                                 : 25.2 kb/s
  540. Count of elements                        : 1838
  541. Stream size                              : 21.5 MiB (0%)
  542. Language                                 : Dutch
  543. Default                                  : No
  544. Forced                                   : No
  545. Original source medium                   : Blu-ray

  546. Text #13
  547. ID                                       : 29
  548. ID in the original source medium         : 4778 (0x12AA)
  549. Format                                   : PGS
  550. Muxing mode                              : zlib
  551. Codec ID                                 : S_HDMV/PGS
  552. Codec ID/Info                            : Picture based subtitle format used on BDs/HD-DVDs
  553. Duration                                 : 1 h 59 min
  554. Bit rate                                 : 24.7 kb/s
  555. Count of elements                        : 2096
  556. Stream size                              : 21.0 MiB (0%)
  557. Language                                 : Finnish
  558. Default                                  : No
  559. Forced                                   : No
  560. Original source medium                   : Blu-ray

  561. Text #14
  562. ID                                       : 30
  563. ID in the original source medium         : 4779 (0x12AB)
  564. Format                                   : PGS
  565. Muxing mode                              : zlib
  566. Codec ID                                 : S_HDMV/PGS
  567. Codec ID/Info                            : Picture based subtitle format used on BDs/HD-DVDs
  568. Duration                                 : 2 h 4 min
  569. Bit rate                                 : 24.4 kb/s
  570. Count of elements                        : 2308
  571. Stream size                              : 21.7 MiB (0%)
  572. Language                                 : French
  573. Default                                  : No
  574. Forced                                   : No
  575. Original source medium                   : Blu-ray

  576. Text #15
  577. ID                                       : 31
  578. ID in the original source medium         : 4779 (0x12AB)
  579. Format                                   : PGS
  580. Muxing mode                              : zlib
  581. Codec ID                                 : S_HDMV/PGS
  582. Codec ID/Info                            : Picture based subtitle format used on BDs/HD-DVDs
  583. Duration                                 : 1 h 35 min
  584. Bit rate                                 : 370 b/s
  585. Count of elements                        : 34
  586. Stream size                              : 259 KiB (0%)
  587. Language                                 : French
  588. Default                                  : No
  589. Forced                                   : No
  590. Original source medium                   : Blu-ray

  591. Text #16
  592. ID                                       : 32
  593. ID in the original source medium         : 4780 (0x12AC)
  594. Format                                   : PGS
  595. Muxing mode                              : zlib
  596. Codec ID                                 : S_HDMV/PGS
  597. Codec ID/Info                            : Picture based subtitle format used on BDs/HD-DVDs
  598. Duration                                 : 1 h 59 min
  599. Bit rate                                 : 28.8 kb/s
  600. Count of elements                        : 2324
  601. Stream size                              : 24.5 MiB (0%)
  602. Language                                 : German
  603. Default                                  : No
  604. Forced                                   : No
  605. Original source medium                   : Blu-ray

  606. Text #17
  607. ID                                       : 33
  608. ID in the original source medium         : 4780 (0x12AC)
  609. Format                                   : PGS
  610. Muxing mode                              : zlib
  611. Codec ID                                 : S_HDMV/PGS
  612. Codec ID/Info                            : Picture based subtitle format used on BDs/HD-DVDs
  613. Duration                                 : 43 min 56 s
  614. Bit rate                                 : 869 b/s
  615. Count of elements                        : 34
  616. Stream size                              : 280 KiB (0%)
  617. Language                                 : German
  618. Default                                  : No
  619. Forced                                   : No
  620. Original source medium                   : Blu-ray

  621. Text #18
  622. ID                                       : 34
  623. ID in the original source medium         : 4781 (0x12AD)
  624. Format                                   : PGS
  625. Muxing mode                              : zlib
  626. Codec ID                                 : S_HDMV/PGS
  627. Codec ID/Info                            : Picture based subtitle format used on BDs/HD-DVDs
  628. Duration                                 : 1 h 59 min
  629. Bit rate                                 : 28.8 kb/s
  630. Count of elements                        : 2290
  631. Stream size                              : 24.6 MiB (0%)
  632. Language                                 : Greek
  633. Default                                  : No
  634. Forced                                   : No
  635. Original source medium                   : Blu-ray

  636. Text #19
  637. ID                                       : 35
  638. ID in the original source medium         : 4782 (0x12AE)
  639. Format                                   : PGS
  640. Muxing mode                              : zlib
  641. Codec ID                                 : S_HDMV/PGS
  642. Codec ID/Info                            : Picture based subtitle format used on BDs/HD-DVDs
  643. Duration                                 : 2 h 4 min
  644. Bit rate                                 : 24.6 kb/s
  645. Count of elements                        : 2296
  646. Stream size                              : 21.9 MiB (0%)
  647. Language                                 : Hungarian
  648. Default                                  : No
  649. Forced                                   : No
  650. Original source medium                   : Blu-ray

  651. Text #20
  652. ID                                       : 36
  653. ID in the original source medium         : 4782 (0x12AE)
  654. Format                                   : PGS
  655. Muxing mode                              : zlib
  656. Codec ID                                 : S_HDMV/PGS
  657. Codec ID/Info                            : Picture based subtitle format used on BDs/HD-DVDs
  658. Duration                                 : 1 h 18 min
  659. Bit rate                                 : 554 b/s
  660. Count of elements                        : 44
  661. Stream size                              : 321 KiB (0%)
  662. Language                                 : Hungarian
  663. Default                                  : No
  664. Forced                                   : No
  665. Original source medium                   : Blu-ray

  666. Text #21
  667. ID                                       : 37
  668. ID in the original source medium         : 4783 (0x12AF)
  669. Format                                   : PGS
  670. Muxing mode                              : zlib
  671. Codec ID                                 : S_HDMV/PGS
  672. Codec ID/Info                            : Picture based subtitle format used on BDs/HD-DVDs
  673. Duration                                 : 2 h 4 min
  674. Bit rate                                 : 30.3 kb/s
  675. Count of elements                        : 2318
  676. Stream size                              : 26.9 MiB (0%)
  677. Language                                 : Italian
  678. Default                                  : No
  679. Forced                                   : No
  680. Original source medium                   : Blu-ray

  681. Text #22
  682. ID                                       : 38
  683. ID in the original source medium         : 4783 (0x12AF)
  684. Format                                   : PGS
  685. Muxing mode                              : zlib
  686. Codec ID                                 : S_HDMV/PGS
  687. Codec ID/Info                            : Picture based subtitle format used on BDs/HD-DVDs
  688. Duration                                 : 1 h 21 min
  689. Bit rate                                 : 809 b/s
  690. Count of elements                        : 58
  691. Stream size                              : 485 KiB (0%)
  692. Language                                 : Italian
  693. Default                                  : No
  694. Forced                                   : No
  695. Original source medium                   : Blu-ray

  696. Text #23
  697. ID                                       : 39
  698. ID in the original source medium         : 4784 (0x12B0)
  699. Format                                   : PGS
  700. Muxing mode                              : zlib
  701. Codec ID                                 : S_HDMV/PGS
  702. Codec ID/Info                            : Picture based subtitle format used on BDs/HD-DVDs
  703. Duration                                 : 2 h 4 min
  704. Bit rate                                 : 24.6 kb/s
  705. Count of elements                        : 2434
  706. Stream size                              : 21.8 MiB (0%)
  707. Language                                 : Japanese
  708. Default                                  : No
  709. Forced                                   : No
  710. Original source medium                   : Blu-ray

  711. Text #24
  712. ID                                       : 40
  713. ID in the original source medium         : 4785 (0x12B1)
  714. Format                                   : PGS
  715. Muxing mode                              : zlib
  716. Codec ID                                 : S_HDMV/PGS
  717. Codec ID/Info                            : Picture based subtitle format used on BDs/HD-DVDs
  718. Duration                                 : 1 h 59 min
  719. Bit rate                                 : 18.7 kb/s
  720. Count of elements                        : 2312
  721. Stream size                              : 15.9 MiB (0%)
  722. Language                                 : Korean
  723. Default                                  : No
  724. Forced                                   : No
  725. Original source medium                   : Blu-ray

  726. Text #25
  727. ID                                       : 41
  728. ID in the original source medium         : 4785 (0x12B1)
  729. Format                                   : PGS
  730. Muxing mode                              : zlib
  731. Codec ID                                 : S_HDMV/PGS
  732. Codec ID/Info                            : Picture based subtitle format used on BDs/HD-DVDs
  733. Duration                                 : 1 h 21 min
  734. Bit rate                                 : 485 b/s
  735. Count of elements                        : 60
  736. Stream size                              : 290 KiB (0%)
  737. Language                                 : Korean
  738. Default                                  : No
  739. Forced                                   : No
  740. Original source medium                   : Blu-ray

  741. Text #26
  742. ID                                       : 42
  743. ID in the original source medium         : 4786 (0x12B2)
  744. Format                                   : PGS
  745. Muxing mode                              : zlib
  746. Codec ID                                 : S_HDMV/PGS
  747. Codec ID/Info                            : Picture based subtitle format used on BDs/HD-DVDs
  748. Duration                                 : 2 h 4 min
  749. Bit rate                                 : 24.1 kb/s
  750. Count of elements                        : 2202
  751. Stream size                              : 21.4 MiB (0%)
  752. Language                                 : Norwegian
  753. Default                                  : No
  754. Forced                                   : No
  755. Original source medium                   : Blu-ray

  756. Text #27
  757. ID                                       : 43
  758. ID in the original source medium         : 4787 (0x12B3)
  759. Format                                   : PGS
  760. Muxing mode                              : zlib
  761. Codec ID                                 : S_HDMV/PGS
  762. Codec ID/Info                            : Picture based subtitle format used on BDs/HD-DVDs
  763. Duration                                 : 2 h 4 min
  764. Bit rate                                 : 25.0 kb/s
  765. Count of elements                        : 2268
  766. Stream size                              : 22.2 MiB (0%)
  767. Language                                 : Polish
  768. Default                                  : No
  769. Forced                                   : No
  770. Original source medium                   : Blu-ray

  771. Text #28
  772. ID                                       : 44
  773. ID in the original source medium         : 4787 (0x12B3)
  774. Format                                   : PGS
  775. Muxing mode                              : zlib
  776. Codec ID                                 : S_HDMV/PGS
  777. Codec ID/Info                            : Picture based subtitle format used on BDs/HD-DVDs
  778. Duration                                 : 1 h 44 min
  779. Bit rate                                 : 584 b/s
  780. Count of elements                        : 56
  781. Stream size                              : 446 KiB (0%)
  782. Language                                 : Polish
  783. Default                                  : No
  784. Forced                                   : No
  785. Original source medium                   : Blu-ray

  786. Text #29
  787. ID                                       : 45
  788. ID in the original source medium         : 4788 (0x12B4)
  789. Format                                   : PGS
  790. Muxing mode                              : zlib
  791. Codec ID                                 : S_HDMV/PGS
  792. Codec ID/Info                            : Picture based subtitle format used on BDs/HD-DVDs
  793. Duration                                 : 2 h 4 min
  794. Bit rate                                 : 28.2 kb/s
  795. Count of elements                        : 2314
  796. Stream size                              : 25.0 MiB (0%)
  797. Language                                 : Portuguese
  798. Default                                  : No
  799. Forced                                   : No
  800. Original source medium                   : Blu-ray

  801. Text #30
  802. ID                                       : 46
  803. ID in the original source medium         : 4789 (0x12B5)
  804. Format                                   : PGS
  805. Muxing mode                              : zlib
  806. Codec ID                                 : S_HDMV/PGS
  807. Codec ID/Info                            : Picture based subtitle format used on BDs/HD-DVDs
  808. Duration                                 : 1 h 59 min
  809. Bit rate                                 : 25.7 kb/s
  810. Count of elements                        : 2258
  811. Stream size                              : 21.9 MiB (0%)
  812. Language                                 : Romanian
  813. Default                                  : No
  814. Forced                                   : No
  815. Original source medium                   : Blu-ray

  816. Text #31
  817. ID                                       : 47
  818. ID in the original source medium         : 4790 (0x12B6)
  819. Format                                   : PGS
  820. Muxing mode                              : zlib
  821. Codec ID                                 : S_HDMV/PGS
  822. Codec ID/Info                            : Picture based subtitle format used on BDs/HD-DVDs
  823. Duration                                 : 1 h 59 min
  824. Bit rate                                 : 27.1 kb/s
  825. Count of elements                        : 2122
  826. Stream size                              : 23.2 MiB (0%)
  827. Language                                 : Russian
  828. Default                                  : No
  829. Forced                                   : No
  830. Original source medium                   : Blu-ray

  831. Text #32
  832. ID                                       : 48
  833. ID in the original source medium         : 4790 (0x12B6)
  834. Format                                   : PGS
  835. Muxing mode                              : zlib
  836. Codec ID                                 : S_HDMV/PGS
  837. Codec ID/Info                            : Picture based subtitle format used on BDs/HD-DVDs
  838. Duration                                 : 1 h 19 min
  839. Bit rate                                 : 120 b/s
  840. Count of elements                        : 8
  841. Stream size                              : 70.3 KiB (0%)
  842. Language                                 : Russian
  843. Default                                  : No
  844. Forced                                   : No
  845. Original source medium                   : Blu-ray

  846. Text #33
  847. ID                                       : 49
  848. ID in the original source medium         : 4791 (0x12B7)
  849. Format                                   : PGS
  850. Muxing mode                              : zlib
  851. Codec ID                                 : S_HDMV/PGS
  852. Codec ID/Info                            : Picture based subtitle format used on BDs/HD-DVDs
  853. Duration                                 : 1 h 59 min
  854. Bit rate                                 : 23.6 kb/s
  855. Count of elements                        : 2300
  856. Stream size                              : 20.1 MiB (0%)
  857. Language                                 : Slovenian
  858. Default                                  : No
  859. Forced                                   : No
  860. Original source medium                   : Blu-ray

  861. Text #34
  862. ID                                       : 50
  863. ID in the original source medium         : 4792 (0x12B8)
  864. Format                                   : PGS
  865. Muxing mode                              : zlib
  866. Codec ID                                 : S_HDMV/PGS
  867. Codec ID/Info                            : Picture based subtitle format used on BDs/HD-DVDs
  868. Duration                                 : 1 h 59 min
  869. Bit rate                                 : 26.6 kb/s
  870. Count of elements                        : 2254
  871. Stream size                              : 22.7 MiB (0%)
  872. Language                                 : Spanish
  873. Default                                  : No
  874. Forced                                   : No
  875. Original source medium                   : Blu-ray

  876. Text #35
  877. ID                                       : 51
  878. ID in the original source medium         : 4792 (0x12B8)
  879. Format                                   : PGS
  880. Muxing mode                              : zlib
  881. Codec ID                                 : S_HDMV/PGS
  882. Codec ID/Info                            : Picture based subtitle format used on BDs/HD-DVDs
  883. Duration                                 : 43 min 51 s
  884. Bit rate                                 : 783 b/s
  885. Count of elements                        : 34
  886. Stream size                              : 252 KiB (0%)
  887. Language                                 : Spanish
  888. Default                                  : No
  889. Forced                                   : No
  890. Original source medium                   : Blu-ray

  891. Text #36
  892. ID                                       : 52
  893. ID in the original source medium         : 4793 (0x12B9)
  894. Format                                   : PGS
  895. Muxing mode                              : zlib
  896. Codec ID                                 : S_HDMV/PGS
  897. Codec ID/Info                            : Picture based subtitle format used on BDs/HD-DVDs
  898. Duration                                 : 1 h 59 min
  899. Bit rate                                 : 28.3 kb/s
  900. Count of elements                        : 2354
  901. Stream size                              : 24.1 MiB (0%)
  902. Language                                 : Spanish
  903. Default                                  : No
  904. Forced                                   : No
  905. Original source medium                   : Blu-ray

  906. Text #37
  907. ID                                       : 53
  908. ID in the original source medium         : 4793 (0x12B9)
  909. Format                                   : PGS
  910. Muxing mode                              : zlib
  911. Codec ID                                 : S_HDMV/PGS
  912. Codec ID/Info                            : Picture based subtitle format used on BDs/HD-DVDs
  913. Duration                                 : 1 h 21 min
  914. Bit rate                                 : 325 b/s
  915. Count of elements                        : 22
  916. Stream size                              : 194 KiB (0%)
  917. Language                                 : Spanish
  918. Default                                  : No
  919. Forced                                   : No
  920. Original source medium                   : Blu-ray

  921. Text #38
  922. ID                                       : 54
  923. ID in the original source medium         : 4794 (0x12BA)
  924. Format                                   : PGS
  925. Muxing mode                              : zlib
  926. Codec ID                                 : S_HDMV/PGS
  927. Codec ID/Info                            : Picture based subtitle format used on BDs/HD-DVDs
  928. Duration                                 : 2 h 4 min
  929. Bit rate                                 : 23.6 kb/s
  930. Count of elements                        : 2102
  931. Stream size                              : 21.0 MiB (0%)
  932. Language                                 : Swedish
  933. Default                                  : No
  934. Forced                                   : No
  935. Original source medium                   : Blu-ray

  936. Text #39
  937. ID                                       : 55
  938. ID in the original source medium         : 4795 (0x12BB)
  939. Format                                   : PGS
  940. Muxing mode                              : zlib
  941. Codec ID                                 : S_HDMV/PGS
  942. Codec ID/Info                            : Picture based subtitle format used on BDs/HD-DVDs
  943. Duration                                 : 1 h 59 min
  944. Bit rate                                 : 24.3 kb/s
  945. Count of elements                        : 2300
  946. Stream size                              : 20.7 MiB (0%)
  947. Language                                 : Thai
  948. Default                                  : No
  949. Forced                                   : No
  950. Original source medium                   : Blu-ray

  951. Text #40
  952. ID                                       : 56
  953. ID in the original source medium         : 4795 (0x12BB)
  954. Format                                   : PGS
  955. Muxing mode                              : zlib
  956. Codec ID                                 : S_HDMV/PGS
  957. Codec ID/Info                            : Picture based subtitle format used on BDs/HD-DVDs
  958. Duration                                 : 1 h 28 min
  959. Bit rate                                 : 330 b/s
  960. Count of elements                        : 28
  961. Stream size                              : 213 KiB (0%)
  962. Language                                 : Thai
  963. Default                                  : No
  964. Forced                                   : No
  965. Original source medium                   : Blu-ray

  966. Text #41
  967. ID                                       : 57
  968. ID in the original source medium         : 4796 (0x12BC)
  969. Format                                   : PGS
  970. Muxing mode                              : zlib
  971. Codec ID                                 : S_HDMV/PGS
  972. Codec ID/Info                            : Picture based subtitle format used on BDs/HD-DVDs
  973. Duration                                 : 2 h 4 min
  974. Bit rate                                 : 25.1 kb/s
  975. Count of elements                        : 2312
  976. Stream size                              : 22.3 MiB (0%)
  977. Language                                 : Turkish
  978. Default                                  : No
  979. Forced                                   : No
  980. Original source medium                   : Blu-ray

  981. Text #42
  982. ID                                       : 58
  983. ID in the original source medium         : 4797 (0x12BD)
  984. Format                                   : PGS
  985. Muxing mode                              : zlib
  986. Codec ID                                 : S_HDMV/PGS
  987. Codec ID/Info                            : Picture based subtitle format used on BDs/HD-DVDs
  988. Duration                                 : 1 h 50 min
  989. Bit rate                                 : 1 880 b/s
  990. Count of elements                        : 154
  991. Stream size                              : 1.49 MiB (0%)
  992. Language                                 : Japanese
  993. Default                                  : No
  994. Forced                                   : No
  995. Original source medium                   : Blu-ray

  996. Menu
  997. 00:00:00.000                             : Chapter 01
  998. 00:08:48.986                             : Chapter 02
  999. 00:15:04.612                             : Chapter 03
  1000. 00:22:48.408                             : Chapter 04
  1001. 00:30:24.781                             : Chapter 05
  1002. 00:42:44.061                             : Chapter 06
  1003. 00:49:51.697                             : Chapter 07
  1004. 00:56:47.362                             : Chapter 08
  1005. 01:03:18.628                             : Chapter 09
  1006. 01:08:37.780                             : Chapter 10
  1007. 01:22:08.214                             : Chapter 11
  1008. 01:30:11.697                             : Chapter 12
  1009. 01:36:27.907                             : Chapter 13
  1010. 01:45:13.724                             : Chapter 14
  1011. 01:48:56.321                             : Chapter 15
  1012. 01:56:41.995                             : Chapter 16
复制代码




                                       
                                       

                                       
                                       
                                       




回复

使用道具 举报

懒得打字嘛,点击右侧快捷回复 【右侧内容,后台自定义】
您需要登录后才可以回帖 登录 | 立即加入

本版积分规则

Archiver|小黑屋| 蓝光电影网 |网站地图

Copyright © 2021 Comsenz Inc. Powered by 蓝光电影网

蓝光电影网

本站内容由用户自主分享和转载自互联网,转载目的在于传递更多信息,并不代表本网赞同其观点和对其真实性负责。

如有侵权、违反国家法律政策行为,请联系我们,我们会第一时间及时清除和处理!

举报反馈邮箱:[email protected]

快速回复 返回顶部 返回列表