找回密码

蓝光电影网

查看: 149|回复: 0

[UHD.HEVC] 辣身舞/热舞 Dirty.Dancing.1987.2160p.BluRay.REMUX.HEVC.DTS-HD.MA.TrueHD.7.1.Atmos-FGT 59.13GB

[复制链接]
蓝光币
1084
发表于 2021-5-13 15:00:34 | 显示全部楼层 |阅读模式


◎译  名 辣身舞/热舞/热舞十七/脏舞
◎片  名 Dirty Dancing
◎年  代 1987
◎产  地 美国
◎类  别 剧情 / 恋爱
◎语  言 英语
◎上映日期 1987-08-21
◎IMDb评分  7/10 from 208338 users
◎IMDb链接  https://www.imdb.com/title/tt0092890/
◎豆瓣评分 7.8/10 from 6237 users
◎豆瓣链接 https://movie.douban.com/subject/1293293/
◎片  长 USA: 100 分钟
◎导  演 埃米利·阿朵里诺 Emile Ardolino
◎编  剧 埃莉诺·伯格斯坦 Eleanor Bergstein
◎主  演 詹妮弗·格雷 Jennifer Grey
       帕特里克·斯威兹 Patrick Swayze
       辛西娅·罗德斯 Cynthia Rhodes
       杰里·奥尔巴赫 Jerry Orbach
       杰克韦斯顿 Jack Weston
       凯利·毕晓普 Kelly Bishop
       Dorian Sanchez
◎标  签 美国 | 恋爱 | 舞蹈 | 歌舞 | 美国电影 | 1987 | 辣身舞 | 电影
◎简  介


  弗朗西丝(詹妮弗?格雷 饰)与家人到了凯勒曼山区度假。17岁的弗朗西丝对男孩子、舞蹈和家庭游戏都不感爱好。
  
  一次偶然,她来到了一家旅店,里面的男男女女很是缱绻地在一路舞蹈。弗朗西丝顿时感觉这样的舞蹈不胜入目。舞蹈教练约翰尼(帕特里克?斯威兹 饰)来到了她跟前,他为弗朗西丝解开挂念,并教她舞蹈的根基步。进修进程中,弗朗西丝也发现自己爱上了约翰尼。由于惧怕被解雇,约翰尼不敢与弗朗西丝成长下去。
  
  这时约翰尼的舞伴怀上了大门生罗比的孩子,弗朗西丝让自己的医生父亲帮手检查,但弗朗西丝的父亲误以为孩子是约翰尼的,继而阻止女儿与约翰尼交往,他们俩只好黑暗碰头。由于被诬陷,约翰尼失业了。
◎获奖情况
  第60届奥斯卡金像奖 ?(1988)
  最好原创歌曲 弗兰克·普雷威特?/?约翰·德尼古拉?/?唐纳德·马尔科威茨
  1. Video
  2. ID                                       : 1
  3. ID in the original source medium         : 4113 (0x1011)
  4. Format                                   : HEVC
  5. Format/Info                              : High Efficiency Video Coding
  6. Format profile                           : Main [email protected]@High
  7. HDR format                               : SMPTE ST 2086, HDR10 compatible
  8. Codec ID                                 : V_MPEGH/ISO/HEVC
  9. Duration                                 : 1 h 40 min
  10. Bit rate                                 : 74.5 Mb/s
  11. Width                                    : 3 840 pixels
  12. Height                                   : 2 160 pixels
  13. Display aspect ratio                     : 16:9
  14. Frame rate mode                          : Constant
  15. Frame rate                               : 23.976 (24000/1001/189150) FPS
  16. Color space                              : YUV
  17. Chroma subsampling                       : 4:2:0 (Type 2)
  18. Bit depth                                : 10 bits
  19. Bits/(Pixel*Frame)                       : 0.375
  20. Stream size                              : 52.2 GiB (88%)
  21. Language                                 : English
  22. Default                                  : No
  23. Forced                                   : No
  24. Color range                              : Limited
  25. Color primaries                          : BT.2020
  26. Transfer characteristics                 : PQ
  27. Matrix coefficients                      : BT.2020 non-constant
  28. Mastering display color primaries        : Display P3
  29. Mastering display luminance              : min: 0.0010 cd/m2, max: 1000 cd/m2
  30. Maximum Content Light Level              : 657 cd/m2
  31. Maximum Frame-Average Light Level        : 127 cd/m2
  32. Original source medium                   : Blu-ray

  33. Audio #1
  34. ID                                       : 2
  35. ID in the original source medium         : 4352 (0x1100)
  36. Format                                   : MLP FBA 16-ch
  37. Format/Info                              : Meridian Lossless Packing FBA with 16-channel presentation
  38. Commercial name                          : Dolby TrueHD with Dolby Atmos
  39. Codec ID                                 : A_TRUEHD
  40. Duration                                 : 1 h 40 min
  41. Bit rate mode                            : Variable
  42. Bit rate                                 : 4 142 kb/s
  43. Maximum bit rate                         : 5 895 kb/s
  44. Channel(s)                               : 8 channels
  45. Channel layout                           : L R C LFE Ls Rs Lb Rb
  46. Sampling rate                            : 48.0 kHz
  47. Frame rate                               : 1 200.000 FPS (40 SPF)
  48. Bit depth                                : 24 bits
  49. Compression mode                         : Lossless
  50. Stream size                              : 2.90 GiB (5%)
  51. Title                                    : TrueHD 7.1 Atmos
  52. Language                                 : English
  53. Default                                  : Yes
  54. Forced                                   : No
  55. Original source medium                   : Blu-ray
  56. Number of dynamic objects                : 15
  57. Bed channel count                        : 1 channel
  58. Bed channel configuration                : LFE

  59. Audio #2
  60. ID                                       : 3
  61. Format                                   : DTS XLL
  62. Format/Info                              : Digital Theater Systems
  63. Commercial name                          : DTS-HD Master Audio
  64. Codec ID                                 : A_DTS
  65. Duration                                 : 1 h 40 min
  66. Bit rate mode                            : Variable
  67. Bit rate                                 : 4 263 kb/s
  68. Channel(s)                               : 8 channels
  69. Channel layout                           : C L R LFE Lb Rb Lss Rss
  70. Sampling rate                            : 48.0 kHz
  71. Frame rate                               : 93.750 FPS (512 SPF)
  72. Bit depth                                : 24 bits
  73. Compression mode                         : Lossless
  74. Stream size                              : 2.99 GiB (5%)
  75. Title                                    : DTS-HD MA 7.1
  76. Language                                 : English
  77. Default                                  : No
  78. Forced                                   : No

  79. Audio #3
  80. ID                                       : 4
  81. ID in the original source medium         : 4352 (0x1100)
  82. Format                                   : AC-3
  83. Format/Info                              : Audio Coding 3
  84. Commercial name                          : Dolby Digital
  85. Format settings                          : Dolby Surround EX
  86. Codec ID                                 : A_AC3
  87. Duration                                 : 1 h 40 min
  88. Bit rate mode                            : Constant
  89. Bit rate                                 : 640 kb/s
  90. Channel(s)                               : 6 channels
  91. Channel layout                           : L R C LFE Ls Rs
  92. Sampling rate                            : 48.0 kHz
  93. Frame rate                               : 31.250 FPS (1536 SPF)
  94. Compression mode                         : Lossy
  95. Stream size                              : 460 MiB (1%)
  96. Title                                    : DD 5.1
  97. Language                                 : English
  98. Service kind                             : Complete Main
  99. Default                                  : No
  100. Forced                                   : No
  101. Original source medium                   : Blu-ray

  102. Audio #4
  103. ID                                       : 5
  104. ID in the original source medium         : 4354 (0x1102)
  105. Format                                   : AC-3
  106. Format/Info                              : Audio Coding 3
  107. Commercial name                          : Dolby Digital
  108. Format settings                          : Dolby Surround
  109. Codec ID                                 : A_AC3
  110. Duration                                 : 1 h 40 min
  111. Bit rate mode                            : Constant
  112. Bit rate                                 : 224 kb/s
  113. Channel(s)                               : 2 channels
  114. Channel layout                           : L R
  115. Sampling rate                            : 48.0 kHz
  116. Frame rate                               : 31.250 FPS (1536 SPF)
  117. Compression mode                         : Lossy
  118. Stream size                              : 161 MiB (0%)
  119. Title                                    : DD 2.0
  120. Language                                 : English
  121. Service kind                             : Complete Main
  122. Default                                  : No
  123. Forced                                   : No
  124. Original source medium                   : Blu-ray

  125. Audio #5
  126. ID                                       : 6
  127. ID in the original source medium         : 4355 (0x1103)
  128. Format                                   : AC-3
  129. Format/Info                              : Audio Coding 3
  130. Commercial name                          : Dolby Digital
  131. Format settings                          : Dolby Surround
  132. Codec ID                                 : A_AC3
  133. Duration                                 : 1 h 40 min
  134. Bit rate mode                            : Constant
  135. Bit rate                                 : 224 kb/s
  136. Channel(s)                               : 2 channels
  137. Channel layout                           : L R
  138. Sampling rate                            : 48.0 kHz
  139. Frame rate                               : 31.250 FPS (1536 SPF)
  140. Compression mode                         : Lossy
  141. Stream size                              : 161 MiB (0%)
  142. Title                                    : DD 2.0
  143. Language                                 : English
  144. Service kind                             : Complete Main
  145. Default                                  : No
  146. Forced                                   : No
  147. Original source medium                   : Blu-ray

  148. Audio #6
  149. ID                                       : 7
  150. ID in the original source medium         : 4356 (0x1104)
  151. Format                                   : AC-3
  152. Format/Info                              : Audio Coding 3
  153. Commercial name                          : Dolby Digital
  154. Format settings                          : Dolby Surround
  155. Codec ID                                 : A_AC3
  156. Duration                                 : 1 h 40 min
  157. Bit rate mode                            : Constant
  158. Bit rate                                 : 224 kb/s
  159. Channel(s)                               : 2 channels
  160. Channel layout                           : L R
  161. Sampling rate                            : 48.0 kHz
  162. Frame rate                               : 31.250 FPS (1536 SPF)
  163. Compression mode                         : Lossy
  164. Stream size                              : 161 MiB (0%)
  165. Title                                    : DD 2.0
  166. Language                                 : English
  167. Service kind                             : Complete Main
  168. Default                                  : No
  169. Forced                                   : No
  170. Original source medium                   : Blu-ray

  171. Text #1
  172. ID                                       : 8
  173. Format                                   : UTF-8
  174. Codec ID                                 : S_TEXT/UTF8
  175. Codec ID/Info                            : UTF-8 Plain Text
  176. Duration                                 : 1 h 37 min
  177. Bit rate                                 : 44 b/s
  178. Count of elements                        : 895
  179. Stream size                              : 31.9 KiB (0%)
  180. Title                                    : English-SRT
  181. Language                                 : English
  182. Default                                  : Yes
  183. Forced                                   : No

  184. Text #2
  185. ID                                       : 9
  186. ID in the original source medium         : 4768 (0x12A0)
  187. Format                                   : PGS
  188. Muxing mode                              : zlib
  189. Codec ID                                 : S_HDMV/PGS
  190. Codec ID/Info                            : Picture based subtitle format used on BDs/HD-DVDs
  191. Duration                                 : 1 h 37 min
  192. Bit rate                                 : 27.7 kb/s
  193. Count of elements                        : 1796
  194. Stream size                              : 19.3 MiB (0%)
  195. Title                                    : English-PGS
  196. Language                                 : English
  197. Default                                  : No
  198. Forced                                   : No
  199. Original source medium                   : Blu-ray

  200. Text #3
  201. ID                                       : 10
  202. ID in the original source medium         : 4769 (0x12A1)
  203. Format                                   : PGS
  204. Muxing mode                              : zlib
  205. Codec ID                                 : S_HDMV/PGS
  206. Codec ID/Info                            : Picture based subtitle format used on BDs/HD-DVDs
  207. Duration                                 : 1 h 39 min
  208. Bit rate                                 : 35.0 kb/s
  209. Count of elements                        : 2464
  210. Stream size                              : 24.8 MiB (0%)
  211. Title                                    : English-SDH-PGS
  212. Language                                 : English
  213. Default                                  : No
  214. Forced                                   : No
  215. Original source medium                   : Blu-ray

  216. Text #4
  217. ID                                       : 11
  218. ID in the original source medium         : 4770 (0x12A2)
  219. Format                                   : PGS
  220. Muxing mode                              : zlib
  221. Codec ID                                 : S_HDMV/PGS
  222. Codec ID/Info                            : Picture based subtitle format used on BDs/HD-DVDs
  223. Duration                                 : 1 h 39 min
  224. Bit rate                                 : 25.8 kb/s
  225. Count of elements                        : 1762
  226. Stream size                              : 18.3 MiB (0%)
  227. Title                                    : Spanish-PGS
  228. Language                                 : Spanish
  229. Default                                  : No
  230. Forced                                   : No
  231. Original source medium                   : Blu-ray

  232. Menu
  233. 00:00:00.000                             : Chapter 01
  234. 00:04:35.525                             : Chapter 02
  235. 00:13:21.133                             : Chapter 03
  236. 00:20:49.248                             : Chapter 04
  237. 00:25:11.927                             : Chapter 05
  238. 00:33:26.170                             : Chapter 06
  239. 00:40:07.571                             : Chapter 07
  240. 00:46:38.337                             : Chapter 08
  241. 00:50:32.654                             : Chapter 09
  242. 00:59:14.259                             : Chapter 10
  243. 01:05:44.190                             : Chapter 11
  244. 01:11:07.054                             : Chapter 12
  245. 01:15:11.840                             : Chapter 13
  246. 01:20:54.307                             : Chapter 14
  247. 01:25:44.764                             : Chapter 15
  248. 01:28:45.695                             : Chapter 16
复制代码




                                       
                                       

                                       
                                       
                                       




回复

使用道具 举报

懒得打字嘛,点击右侧快捷回复 【右侧内容,后台自定义】
您需要登录后才可以回帖 登录 | 立即加入

本版积分规则

Archiver|小黑屋| 蓝光电影网 |网站地图

Copyright © 2021 Comsenz Inc. Powered by 蓝光电影网

蓝光电影网

本站内容由用户自主分享和转载自互联网,转载目的在于传递更多信息,并不代表本网赞同其观点和对其真实性负责。

如有侵权、违反国家法律政策行为,请联系我们,我们会第一时间及时清除和处理!

举报反馈邮箱:[email protected]

快速回复 返回顶部 返回列表