找回密码

蓝光电影网

查看: 151|回复: 0

[UHD.HEVC] 大逃杀 Battle.Royale.2000.JAPANESE.DC.2160p.UHD.BluRay.REMUX.HEVC.DTS-HD.MA.5.1-FGT 76.40GB

[复制链接]
蓝光币
1084
发表于 2021-5-13 14:53:04 | 显示全部楼层 |阅读模式


◎译  名 大逃杀/Battle Royale/东京圣战/圣战
◎片  名 バトル?ロワイアル
◎年  代 2000
◎产  地 日本
◎类  别 剧情 / 科幻 / 惊悚
◎语  言 日语
◎上映日期 2000-12-16(日本)
◎IMDb评分  7.6/10 from 171016 users
◎IMDb链接  https://www.imdb.com/title/tt0266308/
◎豆瓣评分 8.0/10 from 180196 users
◎豆瓣链接 https://movie.douban.com/subject/1292444/
◎片  长 114分钟
◎导  演 深作欣二 Kinji Fukasaku
◎编  剧 深作健太 Kenta Fukasaku / 卓识广春 Koushun Takami
◎主  演 藤原龙也 Tatsuya Fujiwara
       前田亚季 Aki Maeda
       山本太郎 Tar? Yamamoto
       北野武 Takeshi Kitano
       栗山千明 Chiaki Kuriyama
       高冈奏辅 Sosuke Takaoka
       塚本高史 Takashi Tsukamoto
       小谷幸弘 Yukihiro Kotani
       石川绘里 Eri Ishikawa
       神谷凉 Sayaka Kamiya
       三村恭代 Takayo Mimura
       岛田礼 Yutaka Shimada
       井上亚纪 Aki Inoue
       松泽莲 Ren Matsuzawa
       本田博仁 Hirohito Honda
       新田亮 Ryou Nitta
       池田早矢加 Sayaka Ikeda
       永田杏奈 Anna Nagata
       金泽祐香利 Yukari Kanasawa
       加藤操 Misao Kato
       日向瞳 Hitomi Hyuga
       石井里弥 Satomi Ishii
       金井爱砂美 Asami Kanai
       花村怜美 Satomi Hanamura
       柴田阳亮 Yousuke Shibata
       乡志郎 Shir? G?
       增田裕生 Yuuki Masuda
       广川茂树 Shigeki Hirokawa
       三原珠纪 Tamaki Mihara
       岛木智实 Tomomi Shimaki
       佐野泰臣 Yasuomi Sano
       日下慎 Shin Kusaka
       西村豪起 Gouki Nishimura
       山口森广 Shigehiro Yamaguchi
       大西修 Osamu Ohnishi
       横道智 Satoshi Yokomichi
       内藤淳一 Junichi Naitou
       木下统耶子 Tsuyako Kinoshita
       关口真衣 Mai Sekiguchi
       马场乔子 Takako Baba
       野见山晴可 Haruka Nomiyama
       岩村爱子 Iwamura Aiko
       前田爱 Ai Maeda
       美波 Minami
       山村美智子 Michi Yamamura
       利根川寿寿花 Suzuka Tonegawa
       诹访太朗 Tar? Suwa
       片冈礼子 Reiko Kataoka
       谷口节 Takashi Taniguchi
       中井出健 Ken Nakaide
       深浦加奈子 Kanako Fukaura
       宫村优子 Y?ko Miyamura
       柴崎幸 Kou Shibasaki
       安藤政信 Masanobu And?
       伊尔琳·菲茨杰拉德 Erin Fitzgerald
       斯蒂芬妮·社 Stephanie Sheh
       John Snyder
       斯派克·斯潘塞 Spike Spencer
       Kaiji Tang
       Julie Ann Taylor
       芦川诚 Makoto Ashikawa
◎标  签 日本 | 北野武 | 暴力 | 人性 | 血腥 | 日本电影 | 大逃杀 | 深作欣二
◎简  介


  为了培育出忠厚效忠于成人、在逆境中坚忍不拔的青少年一代,日本政府出台《BR》法案。每年都从全国黉舍随机抽出一个班级的同学,前往荒岛停止保存极限应战——教员发给门生舆图、食粮和各式兵器,令他们自相残杀,直到存活下来的最初一个,才能离拓荒岛。接下来,残暴的游戏法则和使人失望的保存条件,使班级里的年轻人起头了相互杀戮。善良大概凶残,自动反击大概被动戍守, 同学们起头了各自的计划,人性的丑陋在血腥的灭亡中表露无遗。
  
  大逃杀的游戏在荒岛上壮烈上演。究竟门生们的宿命若何,谁才是最初的存活者。
◎获奖情况
  第24届日本电影学院奖 ?(2001)
  最好影片(提名)
  最好导演(提名) 深作欣二
  最好编剧(提名) 深作健太
  最好男配角(提名) 藤原龙也
  最好配乐(提名) 天野邪道
  最好录音(提名) 安藤邦男
  最好剪辑 阿部浩英
  最好新人 藤原龙也?/?前田亚季
  1. Video
  2. ID                                       : 1
  3. ID in the original source medium         : 4113 (0x1011)
  4. Format                                   : HEVC
  5. Format/Info                              : High Efficiency Video Coding
  6. Format profile                           : Main [email protected]@High
  7. HDR format                               : SMPTE ST 2086, HDR10 compatible
  8. Codec ID                                 : V_MPEGH/ISO/HEVC
  9. Duration                                 : 2 h 2 min
  10. Bit rate                                 : 83.5 Mb/s
  11. Width                                    : 3 840 pixels
  12. Height                                   : 2 160 pixels
  13. Display aspect ratio                     : 16:9
  14. Frame rate mode                          : Constant
  15. Frame rate                               : 23.976 (24000/1001/189150) FPS
  16. Color space                              : YUV
  17. Chroma subsampling                       : 4:2:0 (Type 2)
  18. Bit depth                                : 10 bits
  19. Bits/(Pixel*Frame)                       : 0.420
  20. Stream size                              : 71.2 GiB (93%)
  21. Language                                 : English
  22. Default                                  : No
  23. Forced                                   : No
  24. Color range                              : Limited
  25. Color primaries                          : BT.2020
  26. Transfer characteristics                 : PQ
  27. Matrix coefficients                      : BT.2020 non-constant
  28. Mastering display color primaries        : BT.2020
  29. Mastering display luminance              : min: 0.0001 cd/m2, max: 1000 cd/m2
  30. Original source medium                   : Blu-ray

  31. Audio #1
  32. ID                                       : 2
  33. ID in the original source medium         : 4352 (0x1100)
  34. Format                                   : DTS XLL
  35. Format/Info                              : Digital Theater Systems
  36. Commercial name                          : DTS-HD Master Audio
  37. Codec ID                                 : A_DTS
  38. Duration                                 : 2 h 2 min
  39. Bit rate mode                            : Variable
  40. Bit rate                                 : 3 790 kb/s
  41. Channel(s)                               : 6 channels
  42. Channel layout                           : C L R Ls Rs LFE
  43. Sampling rate                            : 48.0 kHz
  44. Frame rate                               : 93.750 FPS (512 SPF)
  45. Bit depth                                : 24 bits
  46. Compression mode                         : Lossless
  47. Stream size                              : 3.23 GiB (4%)
  48. Title                                    : DTS-HD MA 5.1
  49. Language                                 : Japanese
  50. Default                                  : Yes
  51. Forced                                   : No
  52. Original source medium                   : Blu-ray

  53. Audio #2
  54. ID                                       : 3
  55. Format                                   : AC-3
  56. Format/Info                              : Audio Coding 3
  57. Commercial name                          : Dolby Digital
  58. Codec ID                                 : A_AC3
  59. Duration                                 : 2 h 2 min
  60. Bit rate mode                            : Constant
  61. Bit rate                                 : 640 kb/s
  62. Channel(s)                               : 6 channels
  63. Channel layout                           : L R C LFE Ls Rs
  64. Sampling rate                            : 48.0 kHz
  65. Frame rate                               : 31.250 FPS (1536 SPF)
  66. Compression mode                         : Lossy
  67. Stream size                              : 559 MiB (1%)
  68. Title                                    : DD 5.1
  69. Language                                 : Japanese
  70. Service kind                             : Complete Main
  71. Default                                  : No
  72. Forced                                   : No

  73. Audio #3
  74. ID                                       : 4
  75. ID in the original source medium         : 4353 (0x1101)
  76. Format                                   : DTS XLL
  77. Format/Info                              : Digital Theater Systems
  78. Commercial name                          : DTS-HD Master Audio
  79. Codec ID                                 : A_DTS
  80. Duration                                 : 2 h 2 min
  81. Bit rate mode                            : Variable
  82. Bit rate                                 : 1 647 kb/s
  83. Channel(s)                               : 2 channels
  84. Channel layout                           : L R
  85. Sampling rate                            : 48.0 kHz
  86. Frame rate                               : 93.750 FPS (512 SPF)
  87. Bit depth                                : 24 bits
  88. Compression mode                         : Lossless
  89. Stream size                              : 1.40 GiB (2%)
  90. Title                                    : DTS-HD MA 2.0
  91. Language                                 : Japanese
  92. Default                                  : No
  93. Forced                                   : No
  94. Original source medium                   : Blu-ray

  95. Text #1
  96. ID                                       : 5
  97. Format                                   : UTF-8
  98. Codec ID                                 : S_TEXT/UTF8
  99. Codec ID/Info                            : UTF-8 Plain Text
  100. Duration                                 : 2 h 1 min
  101. Bit rate                                 : 34 b/s
  102. Count of elements                        : 974
  103. Stream size                              : 31.1 KiB (0%)
  104. Title                                    : English-SRT
  105. Language                                 : English
  106. Default                                  : Yes
  107. Forced                                   : No

  108. Text #2
  109. ID                                       : 6
  110. Format                                   : UTF-8
  111. Codec ID                                 : S_TEXT/UTF8
  112. Codec ID/Info                            : UTF-8 Plain Text
  113. Duration                                 : 2 h 1 min
  114. Bit rate                                 : 36 b/s
  115. Count of elements                        : 1036
  116. Stream size                              : 32.5 KiB (0%)
  117. Title                                    : English-SDH-SRT
  118. Language                                 : English
  119. Default                                  : No
  120. Forced                                   : No

  121. Text #3
  122. ID                                       : 7
  123. ID in the original source medium         : 4768 (0x12A0)
  124. Format                                   : PGS
  125. Muxing mode                              : zlib
  126. Codec ID                                 : S_HDMV/PGS
  127. Codec ID/Info                            : Picture based subtitle format used on BDs/HD-DVDs
  128. Duration                                 : 2 h 1 min
  129. Bit rate                                 : 24.5 kb/s
  130. Count of elements                        : 2074
  131. Stream size                              : 21.3 MiB (0%)
  132. Title                                    : English-PGS
  133. Language                                 : English
  134. Default                                  : No
  135. Forced                                   : No
  136. Original source medium                   : Blu-ray

  137. Menu
  138. 00:00:00.000                             : Chapter 01
  139. 00:08:51.364                             : Chapter 02
  140. 00:20:53.335                             : Chapter 03
  141. 00:29:34.564                             : Chapter 04
  142. 00:41:07.798                             : Chapter 05
  143. 00:49:43.689                             : Chapter 06
  144. 00:57:39.497                             : Chapter 07
  145. 01:08:41.992                             : Chapter 08
  146. 01:19:30.390                             : Chapter 09
  147. 01:34:36.629                             : Chapter 10
  148. 01:43:22.196                             : Chapter 11
  149. 01:52:30.660                             : Chapter 12
复制代码




                                       
                                       

                                       
                                       
                                       




回复

使用道具 举报

懒得打字嘛,点击右侧快捷回复 【右侧内容,后台自定义】
您需要登录后才可以回帖 登录 | 立即加入

本版积分规则

Archiver|小黑屋| 蓝光电影网 |网站地图

Copyright © 2021 Comsenz Inc. Powered by 蓝光电影网

蓝光电影网

本站内容由用户自主分享和转载自互联网,转载目的在于传递更多信息,并不代表本网赞同其观点和对其真实性负责。

如有侵权、违反国家法律政策行为,请联系我们,我们会第一时间及时清除和处理!

举报反馈邮箱:[email protected]

快速回复 返回顶部 返回列表