找回密码

蓝光电影网

查看: 76|回复: 0

[2160p] 女人/野蛮女人 The.Woman.2011.2160p.BluRay.x265.10bit.SDR.DTS-HD.MA.5.1-SWTYBLZ 33.19GB

[复制链接]
蓝光币
1080
发表于 2020-9-26 11:46:14 | 显示全部楼层 |阅读模式


◎译  名 女人/蛮横女人
◎片  名 The Woman
◎年  代 2011
◎产  地 美国
◎类  别 可骇
◎语  言 英语
◎上映日期 2011
◎IMDb评分  6/10 from 21582 users
◎IMDb链接  https://www.imdb.com/title/tt1714208/
◎豆瓣评分 6.4/10 from 1768 users
◎豆瓣链接 https://movie.douban.com/subject/5326608/
◎片  长 103分钟
◎导  演 拉齐·马凯 Lucky McKee
◎编  剧 拉齐·马凯 Lucky McKee / 杰克·珂强 Jack Ketchum
◎主  演 安吉拉·贝蒂斯 Angela Bettis
       宝拉雅娜·麦金托什 Pollyanna McIntosh
       肖恩·布里吉格斯 Sean Bridgers
       劳伦·阿什利·卡特 Lauren Ashley Carter
◎标  签 可骇 | 血腥 | 美国 | 惊悚 | 美国电影 | cult | 2011 | Cult
◎简  介


  影片报告了一个从小被抛弃于森林,依照动物保存形式存活下来的女人。被一个汉子抢劫回家而且受尽凌辱。这家人中,男仆人极端大男人主义,敌视女人。小儿子由于受父亲教导也对女人极不尊重。懦弱并唾面自干的母亲,被父亲欺侮而怀孕的大女儿,以及不谙世事的小女儿。故事的最初,大女儿在极端失望和恐惧的安排下放了野女人,野女人杀了她的怙恃和弟弟,带走了她的妹妹。   本片以不太可骇的空气,却深入的暗喻了一个至今仍然存在的严重的社会现象,汉子应当若何看待女人,女人应当若何正确饰演家庭中的脚色。
  1. Video
  2. ID                                       : 1
  3. Format                                   : HEVC
  4. Format/Info                              : High Efficiency Video Coding
  5. Format profile                           : Main [email protected]@High
  6. Codec ID                                 : V_MPEGH/ISO/HEVC
  7. Duration                                 : 1 h 43 min
  8. Bit rate                                 : 42.9 Mb/s
  9. Width                                    : 3 840 pixels
  10. Height                                   : 2 160 pixels
  11. Display aspect ratio                     : 16:9
  12. Frame rate mode                          : Constant
  13. Frame rate                               : 23.976 (24000/1001/189150) FPS
  14. Color space                              : YUV
  15. Chroma subsampling                       : 4:2:0
  16. Bit depth                                : 10 bits
  17. Bits/(Pixel*Frame)                       : 0.216
  18. Stream size                              : 30.9 GiB (93%)
  19. Title                                    : The.Woman.2011.2160p.BluRay.x265.10bit.SDR.DTS-HD.MA.5.1-SWTYBLZ
  20. Writing library                          : x265 3.0ed72af837053:[Windows][GCC 8.2.0][64 bit] 10bit
  21. Encoding settings                        : cpuid=1111039 / frame-threads=6 / numa-pools=40 / wpp / no-pmode / no-pme / no-psnr / no-ssim / log-level=2 / input-csp=1 / input-res=3840x2160 / interlace=0 / total-frames=148320 / level-idc=51 / high-tier=1 / uhd-bd=0 / ref=3 / no-allow-non-conformance / repeat-headers / annexb / aud / hrd / info / hash=0 / no-temporal-layers / no-open-gop / min-keyint=1 / keyint=24 / gop-lookahead=0 / bframes=4 / b-adapt=2 / b-pyramid / bframe-bias=0 / rc-lookahead=25 / lookahead-slices=4 / scenecut=40 / radl=0 / no-splice / no-intra-refresh / ctu=64 / min-cu-size=8 / no-rect / no-amp / max-tu-size=32 / tu-inter-depth=1 / tu-intra-depth=1 / limit-tu=0 / rdoq-level=0 / dynamic-rd=0.00 / no-ssim-rd / signhide / no-tskip / nr-intra=0 / nr-inter=0 / no-constrained-intra / strong-intra-smoothing / max-merge=2 / limit-refs=3 / no-limit-modes / me=1 / subme=2 / merange=57 / temporal-mvp / weightp / no-weightb / no-analyze-src-pics / deblock=0:0 / no-sao / no-sao-non-deblock / rd=3 / no-early-skip / rskip / no-fast-intra / no-tskip-fast / no-cu-lossless / no-b-intra / no-splitrd-skip / rdpenalty=0 / psy-rd=2.00 / psy-rdoq=0.00 / no-rd-refine / no-lossless / cbqpoffs=0 / crqpoffs=0 / rc=crf / crf=16.0 / qcomp=0.60 / qpstep=4 / stats-write=0 / stats-read=0 / vbv-maxrate=160000 / vbv-bufsize=160000 / vbv-init=0.9 / crf-max=0.0 / crf-min=0.0 / ipratio=1.40 / pbratio=1.30 / aq-mode=1 / aq-strength=1.00 / cutree / zone-count=0 / no-strict-cbr / qg-size=32 / no-rc-grain / qpmax=69 / qpmin=0 / no-const-vbv / sar=1 / overscan=0 / videoformat=5 / range=0 / colorprim=2 / transfer=2 / colormatrix=2 / chromaloc=0 / display-window=0 / max-cll=0,0 / min-luma=0 / max-luma=1023 / log2-max-poc-lsb=8 / vui-timing-info / vui-hrd-info / slices=1 / opt-qp-pps / opt-ref-list-length-pps / no-multi-pass-opt-rps / scenecut-bias=0.05 / no-opt-cu-delta-qp / no-aq-motion / no-hdr / no-hdr-opt / no-dhdr10-opt / no-idr-recovery-sei / analysis-reuse-level=5 / scale-factor=0 / refine-intra=0 / refine-inter=0 / refine-mv=0 / refine-ctu-distortion=0 / no-limit-sao / ctu-info=0 / no-lowpass-dct / refine-analysis-type=0 / copy-pic=1 / max-ausize-factor=1.0 / no-dynamic-refine / no-single-sei / no-hevc-aq / qp-adaptation-range=1.00
  22. Language                                 : English
  23. Default                                  : Yes
  24. Forced                                   : No

  25. Audio #1
  26. ID                                       : 2
  27. ID in the original source medium         : 4353 (0x1101)
  28. Format                                   : DTS XLL
  29. Format/Info                              : Digital Theater Systems
  30. Commercial name                          : DTS-HD Master Audio
  31. Codec ID                                 : A_DTS
  32. Duration                                 : 1 h 43 min
  33. Bit rate mode                            : Variable
  34. Bit rate                                 : 2 328 kb/s
  35. Channel(s)                               : 6 channels
  36. Channel layout                           : C L R Ls Rs LFE
  37. Sampling rate                            : 48.0 kHz
  38. Frame rate                               : 93.750 FPS (512 SPF)
  39. Bit depth                                : 16 bits
  40. Compression mode                         : Lossless
  41. Stream size                              : 1.68 GiB (5%)
  42. Title                                    : The.Woman.2011.2160p.BluRay.x265.10bit.SDR.DTS-HD.MA.5.1-SWTYBLZ
  43. Language                                 : English
  44. Default                                  : Yes
  45. Forced                                   : No
  46. Original source medium                   : Blu-ray

  47. Audio #2
  48. ID                                       : 3
  49. Format                                   : AC-3
  50. Format/Info                              : Audio Coding 3
  51. Commercial name                          : Dolby Digital
  52. Codec ID                                 : A_AC3
  53. Duration                                 : 1 h 43 min
  54. Bit rate mode                            : Constant
  55. Bit rate                                 : 640 kb/s
  56. Channel(s)                               : 6 channels
  57. Channel layout                           : L R C LFE Ls Rs
  58. Sampling rate                            : 48.0 kHz
  59. Frame rate                               : 31.250 FPS (1536 SPF)
  60. Compression mode                         : Lossy
  61. Stream size                              : 472 MiB (1%)
  62. Title                                    : The.Woman.2011.2160p.BluRay.x265.10bit.SDR.DTS-HD.MA.5.1-SWTYBLZ
  63. Language                                 : English
  64. Service kind                             : Complete Main
  65. Default                                  : No
  66. Forced                                   : No

  67. Text #1
  68. ID                                       : 4
  69. Format                                   : UTF-8
  70. Codec ID                                 : S_TEXT/UTF8
  71. Codec ID/Info                            : UTF-8 Plain Text
  72. Duration                                 : 1 h 29 min
  73. Bit rate                                 : 33 b/s
  74. Count of elements                        : 789
  75. Stream size                              : 22.0 KiB (0%)
  76. Title                                    : English-SRT
  77. Language                                 : English
  78. Default                                  : Yes
  79. Forced                                   : No

  80. Text #2
  81. ID                                       : 5
  82. ID in the original source medium         : 4770 (0x12A2)
  83. Format                                   : PGS
  84. Muxing mode                              : zlib
  85. Codec ID                                 : S_HDMV/PGS
  86. Codec ID/Info                            : Picture based subtitle format used on BDs/HD-DVDs
  87. Duration                                 : 1 h 29 min
  88. Bit rate                                 : 23.8 kb/s
  89. Count of elements                        : 1578
  90. Stream size                              : 15.2 MiB (0%)
  91. Title                                    : English-PGS
  92. Language                                 : English
  93. Default                                  : No
  94. Forced                                   : No
  95. Original source medium                   : Blu-ray

  96. Text #3
  97. ID                                       : 6
  98. ID in the original source medium         : 4768 (0x12A0)
  99. Format                                   : PGS
  100. Muxing mode                              : zlib
  101. Codec ID                                 : S_HDMV/PGS
  102. Codec ID/Info                            : Picture based subtitle format used on BDs/HD-DVDs
  103. Duration                                 : 2 s 294 ms
  104. Bit rate                                 : 30.9 kb/s
  105. Count of elements                        : 2
  106. Stream size                              : 8.65 KiB (0%)
  107. Title                                    : German-PGS
  108. Language                                 : German
  109. Default                                  : No
  110. Forced                                   : No
  111. Original source medium                   : Blu-ray

  112. Menu
  113. 00:00:00.000                             : en:Chapter 01
  114. 00:05:01.926                             : en:Chapter 02
  115. 00:09:35.116                             : en:Chapter 03
  116. 00:17:10.154                             : en:Chapter 04
  117. 00:24:10.365                             : en:Chapter 05
  118. 00:31:39.314                             : en:Chapter 06
  119. 00:36:37.695                             : en:Chapter 07
  120. 00:42:40.558                             : en:Chapter 08
  121. 00:48:27.779                             : en:Chapter 09
  122. 00:55:48.219                             : en:Chapter 10
  123. 01:02:14.439                             : en:Chapter 11
  124. 01:09:31.167                             : en:Chapter 12
  125. 01:17:59.800                             : en:Chapter 13
  126. 01:23:24.374                             : en:Chapter 14
  127. 01:30:58.870                             : en:Chapter 15
  128. 01:36:58.395                             : en:Chapter 16
复制代码









                                       
                                       

                                       
                                       
                                       




回复

使用道具 举报

懒得打字嘛,点击右侧快捷回复 【右侧内容,后台自定义】
您需要登录后才可以回帖 登录 | 立即加入

本版积分规则

Archiver|小黑屋| 蓝光电影网 |网站地图

Copyright © 2021 Comsenz Inc. Powered by 蓝光电影网

蓝光电影网

本站内容由用户自主分享和转载自互联网,转载目的在于传递更多信息,并不代表本网赞同其观点和对其真实性负责。

如有侵权、违反国家法律政策行为,请联系我们,我们会第一时间及时清除和处理!

举报反馈邮箱:[email protected]

快速回复 返回顶部 返回列表