找回密码

蓝光电影网

查看: 63|回复: 0

[2160p] 后代 Offspring.2009.2160p.BluRay.x264.8bit.SDR.DTS-HD.MA.5.1-SWTYBLZ 38.29GB

[复制链接]
蓝光币
1084
发表于 2020-9-26 11:43:46 | 显示全部楼层 |阅读模式


◎译  名 后代
◎片  名 Offspring
◎年  代 2009
◎类  别 可骇
◎语  言 英语
◎上映日期 2009-02-05
◎IMDb评分  4.8/10 from 2405 users
◎IMDb链接  https://www.imdb.com/title/tt1262413/
◎豆瓣评分 4.0/10 from 154 users
◎豆瓣链接 https://movie.douban.com/subject/3148041/
◎片  长 79分钟
◎导  演 安德鲁·范·登·豪滕 Andrew van den Houten
◎编  剧 杰克·珂强 Jack Ketchum
◎主  演 Rachel White
       霍尔特·格拉汉姆 Holter Graham
       斯宾塞·李斯特 Spencer List
       凯伦·皮斯托里斯 Caren Pistorius
       Leigh Shannan
       宝拉雅娜·麦金托什 Pollyanna McIntosh
       汤米·尼尔森 Tommy Nelson
       艾米·哈格里夫斯 Amy Hargreaves
       杰克·珂强 Jack Ketchum
       安德鲁·范·登·豪滕 Andrew van den Houten
       阿特·欣德尔 Art Hindle
       安德鲁·埃尔维斯·米勒 Andrew Elvis Miller
◎标  签 可骇 | 血腥 | 美国 | 惊悚 | 我看过的可骇电影 | 我看过的电影 | 可骇电影 | 英语的标签
◎简  介


  本片按照作家Jack Ketchum,美国畅销排行榜第一位的同名小说改编而来;一个被人们以为已经死的杀人狂魔,从天堂归来,一定会掀起一场新一轮的血雨腥风,玛瑞和她的孩子们,成为了“死神”的方针……
  1. Video
  2. ID                                       : 1
  3. Format                                   : AVC
  4. Format/Info                              : Advanced Video Codec
  5. Format profile                           : [email protected]
  6. Format settings                          : CABAC / 5 Ref Frames
  7. Format settings, CABAC                   : Yes
  8. Format settings, Reference frames        : 5 frames
  9. Codec ID                                 : V_MPEG4/ISO/AVC
  10. Duration                                 : 1 h 19 min
  11. Bit rate                                 : 65.6 Mb/s
  12. Width                                    : 3 840 pixels
  13. Height                                   : 2 160 pixels
  14. Display aspect ratio                     : 16:9
  15. Frame rate mode                          : Constant
  16. Frame rate                               : 23.976 (24000/1001/189150) FPS
  17. Color space                              : YUV
  18. Chroma subsampling                       : 4:2:0
  19. Bit depth                                : 8 bits
  20. Scan type                                : Progressive
  21. Bits/(Pixel*Frame)                       : 0.330
  22. Stream size                              : 36.3 GiB (96%)
  23. Title                                    : Offspring.2009.2160p.BluRay.x264.8bit.SDR.DTS-HD.MA.5.1-SWTYBLZ
  24. Writing library                          : x264 core 157 r2935 545de2f
  25. Encoding settings                        : cabac=1 / ref=5 / deblock=1:-1:-1 / analyse=0x3:0x113 / me=umh / subme=10 / psy=1 / psy_rd=1.00:0.15 / mixed_ref=1 / me_range=48 / chroma_me=1 / trellis=2 / 8x8dct=1 / cqm=0 / deadzone=21,11 / fast_pskip=1 / chroma_qp_offset=-3 / threads=48 / lookahead_threads=4 / sliced_threads=0 / nr=0 / decimate=0 / interlaced=0 / bluray_compat=0 / constrained_intra=0 / bframes=3 / b_pyramid=2 / b_adapt=2 / b_bias=0 / direct=3 / weightb=1 / open_gop=0 / weightp=2 / keyint=250 / keyint_min=23 / scenecut=40 / intra_refresh=0 / rc_lookahead=50 / rc=crf / mbtree=1 / crf=18.0 / qcomp=0.60 / qpmin=0 / qpmax=69 / qpstep=4 / ip_ratio=1.40 / aq=1:1.00
  26. Default                                  : Yes
  27. Forced                                   : No
  28. Audio #1
  29. ID                                       : 2
  30. ID in the original source medium         : 4353 (0x1101)
  31. Format                                   : DTS XLL
  32. Format/Info                              : Digital Theater Systems
  33. Commercial name                          : DTS-HD Master Audio
  34. Codec ID                                 : A_DTS
  35. Duration                                 : 1 h 19 min
  36. Bit rate mode                            : Variable
  37. Bit rate                                 : 2 336 kb/s
  38. Channel(s)                               : 6 channels
  39. Channel layout                           : C L R Ls Rs LFE
  40. Sampling rate                            : 48.0 kHz
  41. Frame rate                               : 93.750 FPS (512 SPF)
  42. Bit depth                                : 16 bits
  43. Compression mode                         : Lossless
  44. Stream size                              : 1.29 GiB (3%)
  45. Title                                    : Offspring.2009.2160p.BluRay.x264.8bit.SDR.DTS-HD.MA.5.1-SWTYBLZ
  46. Language                                 : English
  47. Default                                  : Yes
  48. Forced                                   : No
  49. Original source medium                   : Blu-ray
  50. Audio #2
  51. ID                                       : 3
  52. Format                                   : AC-3
  53. Format/Info                              : Audio Coding 3
  54. Commercial name                          : Dolby Digital
  55. Codec ID                                 : A_AC3
  56. Duration                                 : 1 h 19 min
  57. Bit rate mode                            : Constant
  58. Bit rate                                 : 640 kb/s
  59. Channel(s)                               : 6 channels
  60. Channel layout                           : L R C LFE Ls Rs
  61. Sampling rate                            : 48.0 kHz
  62. Frame rate                               : 31.250 FPS (1536 SPF)
  63. Compression mode                         : Lossy
  64. Stream size                              : 362 MiB (1%)
  65. Title                                    : Offspring.2009.2160p.BluRay.x264.8bit.SDR.DTS-HD.MA.5.1-SWTYBLZ
  66. Language                                 : English
  67. Service kind                             : Complete Main
  68. Default                                  : No
  69. Forced                                   : No
  70. Text #1
  71. ID                                       : 4
  72. Format                                   : UTF-8
  73. Codec ID                                 : S_TEXT/UTF8
  74. Codec ID/Info                            : UTF-8 Plain Text
  75. Duration                                 : 1 h 10 min
  76. Bit rate                                 : 37 b/s
  77. Count of elements                        : 593
  78. Stream size                              : 19.3 KiB (0%)
  79. Title                                    : English-SRT
  80. Language                                 : English
  81. Default                                  : Yes
  82. Forced                                   : No
  83. Text #2
  84. ID                                       : 5
  85. ID in the original source medium         : 4769 (0x12A1)
  86. Format                                   : PGS
  87. Muxing mode                              : zlib
  88. Codec ID                                 : S_HDMV/PGS
  89. Codec ID/Info                            : Picture based subtitle format used on BDs/HD-DVDs
  90. Duration                                 : 25 min 58 s
  91. Bit rate                                 : 1 664 b/s
  92. Count of elements                        : 58
  93. Stream size                              : 317 KiB (0%)
  94. Title                                    : German-PGS
  95. Language                                 : German
  96. Default                                  : No
  97. Forced                                   : No
  98. Original source medium                   : Blu-ray
  99. Menu
  100. 00:00:00.000                             : en:Chapter 01
  101. 00:07:35.788                             : en:Chapter 02
  102. 00:14:30.244                             : en:Chapter 03
  103. 00:24:57.245                             : en:Chapter 04
  104. 00:29:46.826                             : en:Chapter 05
  105. 00:39:41.879                             : en:Chapter 06
  106. 00:48:38.332                             : en:Chapter 07
  107. 00:58:46.898                             : en:Chapter 08
  108. 01:04:53.306                             : en:Chapter 09
  109. 01:08:24.517                             : en:Chapter 10
  110. 01:11:54.893                             : en:Chapter 11
  111. 01:15:24.228                             : en:Chapter 12
复制代码





                                       
                                       

                                       
                                       
                                       




回复

使用道具 举报

懒得打字嘛,点击右侧快捷回复 【右侧内容,后台自定义】
您需要登录后才可以回帖 登录 | 立即加入

本版积分规则

Archiver|小黑屋| 蓝光电影网 |网站地图

Copyright © 2021 Comsenz Inc. Powered by 蓝光电影网

蓝光电影网

本站内容由用户自主分享和转载自互联网,转载目的在于传递更多信息,并不代表本网赞同其观点和对其真实性负责。

如有侵权、违反国家法律政策行为,请联系我们,我们会第一时间及时清除和处理!

举报反馈邮箱:[email protected]

快速回复 返回顶部 返回列表