找回密码

蓝光电影网

查看: 90|回复: 0

[2160p] 爆裂鼓手 Whiplash.2014.2160p.BluRay.x265.10bit.SDR.DTS-HD.MA.TrueHD.7.1.Atmos-SWTYBLZ 25.93GB

[复制链接]
蓝光币
1084
发表于 2020-9-23 23:29:10 | 显示全部楼层 |阅读模式


◎译  名 爆裂鼓手/The Whiplash Drummer/进击的鼓手(台)/鞭打/鼓舞听生(台)/鼓舞真我(港)
◎片  名 Whiplash
◎年  代 2014
◎产  地 美国
◎类  别 剧情 / 音乐
◎语  言 英语
◎上映日期 2014-01-16(圣丹斯电影节) / 2014-10-10(美国)
◎IMDb评分  8.5/10 from 693497 users
◎IMDb链接  https://www.imdb.com/title/tt2582802/
◎豆瓣评分 8.7/10 from 419111 users
◎豆瓣链接 https://movie.douban.com/subject/25773932/
◎片  长 107分钟
◎导  演 达米恩·查泽雷 Damien Chazelle
◎编  剧 达米恩·查泽雷 Damien Chazelle
◎主  演 迈尔斯·特勒 Miles Teller
       J·K·西蒙斯 J.K. Simmons
       保罗·雷瑟 Paul Reiser
       梅莉莎·班诺伊 Melissa Benoist
       奥斯汀·斯托维尔 Austin Stowell
       内特·朗 Nate Lang
       克里斯·马尔基 Chris Mulkey
       达蒙·冈普顿 Damon Gupton
       Suanne Spoke
       马科斯·卡锡 Max Kasch
       Charlie Ian
       杰森·布莱尔 Jayson Blair
       科菲·斯里博伊 Kofi Siriboe
       卡维塔帕蒂尔 Kavita Patil
       C.J. Vana
       塔里克·洛维 Tarik Lowe
       卡尔文·C·温布什 Calvin C. Winbush
       迈克尔·D·科恩 Michael D. Cohen
       艾普尔·格雷斯 April Grace
       马库斯·亨德森 Marcus Henderson
       亨利·G.桑德斯 Henry G. Sanders
       温迪·李 Wendee Lee
       米歇尔·拉夫 Michelle Ruff
◎标  签 音乐 | 励志 | 美国 | 胡想 | 长大 | 爵士 | 剧情 | 人性
◎简  介


  19岁少年安德鲁(迈尔斯·特勒 Miles Teller 饰)长大在单亲家庭,一心想成为顶级爵士乐鼓手。某晚他在黉舍练习时被魔鬼导师弗莱彻(J·K·西蒙斯 J.K. Simmons 饰)相中,进入正规乐队,同时也起头为追求完善支出价格。安德鲁越是刻苦练习,与内部天下越是隔膜。唯一了解他的是弗莱彻,但后者的急躁与喜怒无常扭曲了这段师生关系,更让安德鲁耳闻目击,连带本身的性情亦发生变化。最初当安德鲁终究登上纽约音乐厅的舞台,他才惊骇的发现本来弗莱彻一向等着将他打入灰尘......
  
  《爆裂鼓手》报告一位少年在严师督教下,以很是规手段应战自己的极限、追逐爵士乐鼓手梦的热血故事。仆人公酷爱打鼓,但过度的投入让他落空对音乐的初衷,进而演变成生命的负荷以及师徒间近乎疯魔的对决。电影不但要音乐人的苦痛,更让人看到传统励志背后的残暴真相。 《爆裂鼓手》获得第30届圣丹斯电影节最高声誉评审团奖。
◎获奖情况
  第87届奥斯卡金像奖 ?(2015)
  最好影片(提名) 杰森·布伦?/?戴维·兰开斯特?/?海伦·埃斯特布鲁克
  最好男配角 J·K·西蒙斯
  最好改编剧本(提名) 达米恩·查泽雷
  最好剪辑 汤姆·克罗斯
  最好混音 克雷格·曼恩?/?本·威尔金斯?/?托马斯·柯利
  
  第72届金球奖 ?(2015)
  电影类最好男配角 J·K·西蒙斯
  
  第39届日本电影学院奖 ?(2016)
  最好外语片(提名)
  
  第30届圣丹斯电影节 ?(2014)
  评审团大奖剧情片 达米恩·查泽雷
  观众奖剧情片 达米恩·查泽雷
  
  第21届美国演员工会奖 ?(2015)
  电影奖最好男配角 J·K·西蒙斯
  
  第67届美国编剧工会奖 ?(2015)
  电影奖最好原创剧本(提名) 达米恩·查泽雷
  
  第80届纽约影评人协会奖 ?(2014)
  最好男配角 J·K·西蒙斯
  
  第30届美国自力精神奖 ?(2015)
  最好影片(提名)
  最好导演(提名) 达米恩·查泽雷
  最好男配角 J·K·西蒙斯
  最好剪辑 汤姆·克罗斯
  
  第24届哥谭自力电影奖 ?(2014)
  最好男演员(提名) 迈尔斯·特勒
  
  第15届美国电影学会奖 ?(2014)
  年度佳片
  
  第13届华盛顿影评人协会奖 ?(2014)
  最好影片(提名)
  最好导演(提名) 达米恩·查泽雷
  最好男配角 J·K·西蒙斯
  最好原创剧本(提名) 达米恩·查泽雷
  最好剪辑(提名) 汤姆·克罗斯
  
  第35届波士顿影评人协会奖 ?(2014)
  最好男配角 J·K·西蒙斯
  
  第40届洛杉矶影评人协会奖 ?(2014)
  最好男配角 J·K·西蒙斯
  
  第27届芝加哥影评人协会奖 ?(2014)
  最好影片(提名)
  最好男配角 J·K·西蒙斯
  最好原创剧本(提名) 达米恩·查泽雷
  最好剪辑 汤姆·克罗斯
  最具潜力导演 达米恩·查泽雷
  
  第18届美国在线影评人协会奖 ?(2014)
  最好影片(提名)
  最好男配角(提名) J·K·西蒙斯
  最好原创剧本(提名) 达米恩·查泽雷
  最好剪辑(提名) 汤姆·克罗斯
  
  第5届豆瓣电影鑫像奖 ?(2015)
  鑫豆单元最好影片(外语)(提名)
  1. Video
  2. ID                                       : 1
  3. Format                                   : HEVC
  4. Format/Info                              : High Efficiency Video Coding
  5. Format profile                           : Main [email protected]@High
  6. Codec ID                                 : V_MPEGH/ISO/HEVC
  7. Duration                                 : 1 h 46 min
  8. Bit rate                                 : 26.2 Mb/s
  9. Width                                    : 3 840 pixels
  10. Height                                   : 1 600 pixels
  11. Display aspect ratio                     : 2.40:1
  12. Frame rate mode                          : Constant
  13. Frame rate                               : 23.976 (24000/1001/189150) FPS
  14. Color space                              : YUV
  15. Chroma subsampling                       : 4:2:0
  16. Bit depth                                : 10 bits
  17. Bits/(Pixel*Frame)                       : 0.178
  18. Stream size                              : 19.6 GiB (76%)
  19. Title                                    : Whiplash.2014.2160p.BluRay.x265.10bit.SDR.DTS-HD.MA.TrueHD.7.1.Atmos-SWTYBLZ
  20. Writing library                          : x265 3.0ed72af837053:[Windows][GCC 8.2.0][64 bit] 10bit
  21. Encoding settings                        : cpuid=1111039 / frame-threads=6 / numa-pools=40 / wpp / no-pmode / no-pme / no-psnr / no-ssim / log-level=2 / input-csp=1 / input-res=3840x1600 / interlace=0 / total-frames=153864 / level-idc=51 / high-tier=1 / uhd-bd=0 / ref=3 / no-allow-non-conformance / repeat-headers / annexb / aud / hrd / info / hash=0 / no-temporal-layers / no-open-gop / min-keyint=1 / keyint=24 / gop-lookahead=0 / bframes=4 / b-adapt=2 / b-pyramid / bframe-bias=0 / rc-lookahead=25 / lookahead-slices=4 / scenecut=40 / radl=0 / no-splice / no-intra-refresh / ctu=64 / min-cu-size=8 / no-rect / no-amp / max-tu-size=32 / tu-inter-depth=1 / tu-intra-depth=1 / limit-tu=0 / rdoq-level=0 / dynamic-rd=0.00 / no-ssim-rd / signhide / no-tskip / nr-intra=0 / nr-inter=0 / no-constrained-intra / strong-intra-smoothing / max-merge=2 / limit-refs=3 / no-limit-modes / me=1 / subme=2 / merange=57 / temporal-mvp / weightp / no-weightb / no-analyze-src-pics / deblock=0:0 / no-sao / no-sao-non-deblock / rd=3 / no-early-skip / rskip / no-fast-intra / no-tskip-fast / no-cu-lossless / no-b-intra / no-splitrd-skip / rdpenalty=0 / psy-rd=2.00 / psy-rdoq=0.00 / no-rd-refine / no-lossless / cbqpoffs=0 / crqpoffs=0 / rc=crf / crf=16.0 / qcomp=0.60 / qpstep=4 / stats-write=0 / stats-read=0 / vbv-maxrate=160000 / vbv-bufsize=160000 / vbv-init=0.9 / crf-max=0.0 / crf-min=0.0 / ipratio=1.40 / pbratio=1.30 / aq-mode=1 / aq-strength=1.00 / cutree / zone-count=0 / no-strict-cbr / qg-size=32 / no-rc-grain / qpmax=69 / qpmin=0 / no-const-vbv / sar=1 / overscan=0 / videoformat=5 / range=0 / colorprim=2 / transfer=2 / colormatrix=2 / chromaloc=0 / display-window=0 / max-cll=0,0 / min-luma=0 / max-luma=1023 / log2-max-poc-lsb=8 / vui-timing-info / vui-hrd-info / slices=1 / opt-qp-pps / opt-ref-list-length-pps / no-multi-pass-opt-rps / scenecut-bias=0.05 / no-opt-cu-delta-qp / no-aq-motion / no-hdr / no-hdr-opt / no-dhdr10-opt / no-idr-recovery-sei / analysis-reuse-level=5 / scale-factor=0 / refine-intra=0 / refine-inter=0 / refine-mv=0 / refine-ctu-distortion=0 / no-limit-sao / ctu-info=0 / no-lowpass-dct / refine-analysis-type=0 / copy-pic=1 / max-ausize-factor=1.0 / no-dynamic-refine / no-single-sei / no-hevc-aq / qp-adaptation-range=1.00
  22. Language                                 : English
  23. Default                                  : Yes
  24. Forced                                   : No
  25. Audio #1
  26. ID                                       : 2
  27. Format                                   : MLP FBA 16-ch
  28. Format/Info                              : Meridian Lossless Packing FBA with 16-channel presentation
  29. Commercial name                          : Dolby TrueHD with Dolby Atmos
  30. Codec ID                                 : A_TRUEHD
  31. Duration                                 : 1 h 46 min
  32. Bit rate mode                            : Variable
  33. Bit rate                                 : 3 032 kb/s
  34. Maximum bit rate                         : 5 253 kb/s
  35. Channel(s)                               : 8 channels
  36. Channel layout                           : L R C LFE Ls Rs Lb Rb
  37. Sampling rate                            : 48.0 kHz
  38. Frame rate                               : 1 200.000 FPS (40 SPF)
  39. Compression mode                         : Lossless
  40. Stream size                              : 2.26 GiB (9%)
  41. Title                                    : Whiplash.2014.2160p.BluRay.x265.10bit.SDR.DTS-HD.MA.TrueHD.7.1.Atmos-SWTYBLZ
  42. Language                                 : English
  43. Default                                  : Yes
  44. Forced                                   : No
  45. Number of dynamic objects                : 11
  46. Bed channel count                        : 1 channel
  47. Bed channel configuration                : LFE
  48. Audio #2
  49. ID                                       : 3
  50. Format                                   : DTS XLL
  51. Format/Info                              : Digital Theater Systems
  52. Commercial name                          : DTS-HD Master Audio
  53. Codec ID                                 : A_DTS
  54. Duration                                 : 1 h 46 min
  55. Bit rate mode                            : Variable
  56. Bit rate                                 : 4 226 kb/s
  57. Channel(s)                               : 8 channels
  58. Channel layout                           : C L R LFE Lb Rb Lss Rss
  59. Sampling rate                            : 48.0 kHz
  60. Frame rate                               : 93.750 FPS (512 SPF)
  61. Bit depth                                : 24 bits
  62. Compression mode                         : Lossless
  63. Stream size                              : 3.16 GiB (12%)
  64. Title                                    : Whiplash.2014.2160p.BluRay.x265.10bit.SDR.DTS-HD.MA.TrueHD.7.1.Atmos-SWTYBLZ
  65. Language                                 : English
  66. Default                                  : No
  67. Forced                                   : No
  68. Audio #3
  69. ID                                       : 4
  70. Format                                   : AC-3
  71. Format/Info                              : Audio Coding 3
  72. Commercial name                          : Dolby Digital
  73. Codec ID                                 : A_AC3
  74. Duration                                 : 1 h 46 min
  75. Bit rate mode                            : Constant
  76. Bit rate                                 : 640 kb/s
  77. Channel(s)                               : 6 channels
  78. Channel layout                           : L R C LFE Ls Rs
  79. Sampling rate                            : 48.0 kHz
  80. Frame rate                               : 31.250 FPS (1536 SPF)
  81. Compression mode                         : Lossy
  82. Stream size                              : 490 MiB (2%)
  83. Title                                    : Whiplash.2014.2160p.BluRay.x265.10bit.SDR.DTS-HD.MA.TrueHD.7.1.Atmos-SWTYBLZ
  84. Language                                 : English
  85. Service kind                             : Complete Main
  86. Default                                  : No
  87. Forced                                   : No
  88. Text #1
  89. ID                                       : 5
  90. Format                                   : UTF-8
  91. Codec ID                                 : S_TEXT/UTF8
  92. Codec ID/Info                            : UTF-8 Plain Text
  93. Duration                                 : 1 h 35 min
  94. Bit rate                                 : 44 b/s
  95. Count of elements                        : 889
  96. Stream size                              : 30.9 KiB (0%)
  97. Title                                    : English-SRT
  98. Language                                 : English
  99. Default                                  : Yes
  100. Forced                                   : No
  101. Text #2
  102. ID                                       : 6
  103. Format                                   : PGS
  104. Muxing mode                              : zlib
  105. Codec ID                                 : S_HDMV/PGS
  106. Codec ID/Info                            : Picture based subtitle format used on BDs/HD-DVDs
  107. Duration                                 : 1 h 35 min
  108. Bit rate                                 : 25.7 kb/s
  109. Count of elements                        : 1794
  110. Stream size                              : 17.5 MiB (0%)
  111. Title                                    : English-PGS
  112. Language                                 : English
  113. Default                                  : No
  114. Forced                                   : No
  115. Text #3
  116. ID                                       : 7
  117. Format                                   : PGS
  118. Muxing mode                              : zlib
  119. Codec ID                                 : S_HDMV/PGS
  120. Codec ID/Info                            : Picture based subtitle format used on BDs/HD-DVDs
  121. Duration                                 : 1 h 44 min
  122. Bit rate                                 : 26.3 kb/s
  123. Count of elements                        : 2065
  124. Stream size                              : 19.6 MiB (0%)
  125. Title                                    : English-SDH-PGS
  126. Language                                 : English
  127. Default                                  : No
  128. Forced                                   : No
  129. Text #4
  130. ID                                       : 8
  131. Format                                   : PGS
  132. Muxing mode                              : zlib
  133. Codec ID                                 : S_HDMV/PGS
  134. Codec ID/Info                            : Picture based subtitle format used on BDs/HD-DVDs
  135. Duration                                 : 1 h 41 min
  136. Bit rate                                 : 21.9 kb/s
  137. Count of elements                        : 1836
  138. Stream size                              : 15.9 MiB (0%)
  139. Title                                    : Bulgarian-PGS
  140. Language                                 : Bulgarian
  141. Default                                  : No
  142. Forced                                   : No
  143. Text #5
  144. ID                                       : 9
  145. Format                                   : PGS
  146. Muxing mode                              : zlib
  147. Codec ID                                 : S_HDMV/PGS
  148. Codec ID/Info                            : Picture based subtitle format used on BDs/HD-DVDs
  149. Duration                                 : 1 h 36 min
  150. Bit rate                                 : 19.6 kb/s
  151. Count of elements                        : 1950
  152. Stream size                              : 13.5 MiB (0%)
  153. Title                                    : Chinese-PGS
  154. Language                                 : Chinese
  155. Default                                  : No
  156. Forced                                   : No
  157. Text #6
  158. ID                                       : 10
  159. Format                                   : PGS
  160. Muxing mode                              : zlib
  161. Codec ID                                 : S_HDMV/PGS
  162. Codec ID/Info                            : Picture based subtitle format used on BDs/HD-DVDs
  163. Duration                                 : 1 h 36 min
  164. Bit rate                                 : 21.1 kb/s
  165. Count of elements                        : 1950
  166. Stream size                              : 14.5 MiB (0%)
  167. Title                                    : Chinese-PGS
  168. Language                                 : Chinese
  169. Default                                  : No
  170. Forced                                   : No
  171. Text #7
  172. ID                                       : 11
  173. Format                                   : PGS
  174. Muxing mode                              : zlib
  175. Codec ID                                 : S_HDMV/PGS
  176. Codec ID/Info                            : Picture based subtitle format used on BDs/HD-DVDs
  177. Duration                                 : 1 h 41 min
  178. Bit rate                                 : 17.4 kb/s
  179. Count of elements                        : 1800
  180. Stream size                              : 12.6 MiB (0%)
  181. Title                                    : Croatian-PGS
  182. Language                                 : Croatian
  183. Default                                  : No
  184. Forced                                   : No
  185. Text #8
  186. ID                                       : 12
  187. Format                                   : PGS
  188. Muxing mode                              : zlib
  189. Codec ID                                 : S_HDMV/PGS
  190. Codec ID/Info                            : Picture based subtitle format used on BDs/HD-DVDs
  191. Duration                                 : 1 h 45 min
  192. Bit rate                                 : 18.1 kb/s
  193. Count of elements                        : 1856
  194. Stream size                              : 13.7 MiB (0%)
  195. Title                                    : Czech-PGS
  196. Language                                 : Czech
  197. Default                                  : No
  198. Forced                                   : No
  199. Text #9
  200. ID                                       : 13
  201. Format                                   : PGS
  202. Muxing mode                              : zlib
  203. Codec ID                                 : S_HDMV/PGS
  204. Codec ID/Info                            : Picture based subtitle format used on BDs/HD-DVDs
  205. Duration                                 : 1 h 44 min
  206. Bit rate                                 : 19.6 kb/s
  207. Count of elements                        : 1560
  208. Stream size                              : 14.6 MiB (0%)
  209. Title                                    : Danish-PGS
  210. Language                                 : Danish
  211. Default                                  : No
  212. Forced                                   : No
  213. Text #10
  214. ID                                       : 14
  215. Format                                   : PGS
  216. Muxing mode                              : zlib
  217. Codec ID                                 : S_HDMV/PGS
  218. Codec ID/Info                            : Picture based subtitle format used on BDs/HD-DVDs
  219. Duration                                 : 1 h 35 min
  220. Bit rate                                 : 19.5 kb/s
  221. Count of elements                        : 1436
  222. Stream size                              : 13.3 MiB (0%)
  223. Title                                    : Dutch-PGS
  224. Language                                 : Dutch
  225. Default                                  : No
  226. Forced                                   : No
  227. Text #11
  228. ID                                       : 15
  229. Format                                   : PGS
  230. Muxing mode                              : zlib
  231. Codec ID                                 : S_HDMV/PGS
  232. Codec ID/Info                            : Picture based subtitle format used on BDs/HD-DVDs
  233. Duration                                 : 1 h 44 min
  234. Bit rate                                 : 18.2 kb/s
  235. Count of elements                        : 1716
  236. Stream size                              : 13.6 MiB (0%)
  237. Title                                    : Finnish-PGS
  238. Language                                 : Finnish
  239. Default                                  : No
  240. Forced                                   : No
  241. Text #12
  242. ID                                       : 16
  243. Format                                   : PGS
  244. Muxing mode                              : zlib
  245. Codec ID                                 : S_HDMV/PGS
  246. Codec ID/Info                            : Picture based subtitle format used on BDs/HD-DVDs
  247. Duration                                 : 1 h 44 min
  248. Bit rate                                 : 17.6 kb/s
  249. Count of elements                        : 1728
  250. Stream size                              : 13.1 MiB (0%)
  251. Title                                    : French-PGS
  252. Language                                 : French
  253. Default                                  : No
  254. Forced                                   : No
  255. Text #13
  256. ID                                       : 17
  257. Format                                   : PGS
  258. Muxing mode                              : zlib
  259. Codec ID                                 : S_HDMV/PGS
  260. Codec ID/Info                            : Picture based subtitle format used on BDs/HD-DVDs
  261. Duration                                 : 1 h 35 min
  262. Bit rate                                 : 26.3 kb/s
  263. Count of elements                        : 1714
  264. Stream size                              : 17.9 MiB (0%)
  265. Title                                    : German-PGS
  266. Language                                 : German
  267. Default                                  : No
  268. Forced                                   : No
  269. Text #14
  270. ID                                       : 18
  271. Format                                   : PGS
  272. Muxing mode                              : zlib
  273. Codec ID                                 : S_HDMV/PGS
  274. Codec ID/Info                            : Picture based subtitle format used on BDs/HD-DVDs
  275. Duration                                 : 1 h 39 min
  276. Bit rate                                 : 23.1 kb/s
  277. Count of elements                        : 1834
  278. Stream size                              : 16.4 MiB (0%)
  279. Title                                    : Greek-PGS
  280. Language                                 : Greek
  281. Default                                  : No
  282. Forced                                   : No
  283. Text #15
  284. ID                                       : 19
  285. Format                                   : PGS
  286. Muxing mode                              : zlib
  287. Codec ID                                 : S_HDMV/PGS
  288. Codec ID/Info                            : Picture based subtitle format used on BDs/HD-DVDs
  289. Duration                                 : 1 h 35 min
  290. Bit rate                                 : 19.2 kb/s
  291. Count of elements                        : 1832
  292. Stream size                              : 13.0 MiB (0%)
  293. Title                                    : Hindi-PGS
  294. Language                                 : Hindi
  295. Default                                  : No
  296. Forced                                   : No
  297. Text #16
  298. ID                                       : 20
  299. Format                                   : PGS
  300. Muxing mode                              : zlib
  301. Codec ID                                 : S_HDMV/PGS
  302. Codec ID/Info                            : Picture based subtitle format used on BDs/HD-DVDs
  303. Duration                                 : 1 h 44 min
  304. Bit rate                                 : 18.7 kb/s
  305. Count of elements                        : 1618
  306. Stream size                              : 13.9 MiB (0%)
  307. Title                                    : Hungarian-PGS
  308. Language                                 : Hungarian
  309. Default                                  : No
  310. Forced                                   : No
  311. Text #17
  312. ID                                       : 21
  313. Format                                   : PGS
  314. Muxing mode                              : zlib
  315. Codec ID                                 : S_HDMV/PGS
  316. Codec ID/Info                            : Picture based subtitle format used on BDs/HD-DVDs
  317. Duration                                 : 1 h 35 min
  318. Bit rate                                 : 25.0 kb/s
  319. Count of elements                        : 1818
  320. Stream size                              : 17.0 MiB (0%)
  321. Title                                    : Italian-PGS
  322. Language                                 : Italian
  323. Default                                  : No
  324. Forced                                   : No
  325. Text #18
  326. ID                                       : 22
  327. Format                                   : PGS
  328. Muxing mode                              : zlib
  329. Codec ID                                 : S_HDMV/PGS
  330. Codec ID/Info                            : Picture based subtitle format used on BDs/HD-DVDs
  331. Duration                                 : 1 h 44 min
  332. Bit rate                                 : 16.7 kb/s
  333. Count of elements                        : 1634
  334. Stream size                              : 12.4 MiB (0%)
  335. Title                                    : Norwegian-PGS
  336. Language                                 : Norwegian
  337. Default                                  : No
  338. Forced                                   : No
  339. Text #19
  340. ID                                       : 23
  341. Format                                   : PGS
  342. Muxing mode                              : zlib
  343. Codec ID                                 : S_HDMV/PGS
  344. Codec ID/Info                            : Picture based subtitle format used on BDs/HD-DVDs
  345. Duration                                 : 1 h 35 min
  346. Bit rate                                 : 19.4 kb/s
  347. Count of elements                        : 1770
  348. Stream size                              : 13.2 MiB (0%)
  349. Title                                    : Polish-PGS
  350. Language                                 : Polish
  351. Default                                  : No
  352. Forced                                   : No
  353. Text #20
  354. ID                                       : 24
  355. Format                                   : PGS
  356. Muxing mode                              : zlib
  357. Codec ID                                 : S_HDMV/PGS
  358. Codec ID/Info                            : Picture based subtitle format used on BDs/HD-DVDs
  359. Duration                                 : 1 h 45 min
  360. Bit rate                                 : 20.8 kb/s
  361. Count of elements                        : 1952
  362. Stream size                              : 15.7 MiB (0%)
  363. Title                                    : Portuguese-PGS
  364. Language                                 : Portuguese
  365. Default                                  : No
  366. Forced                                   : No
  367. Text #21
  368. ID                                       : 25
  369. Format                                   : PGS
  370. Muxing mode                              : zlib
  371. Codec ID                                 : S_HDMV/PGS
  372. Codec ID/Info                            : Picture based subtitle format used on BDs/HD-DVDs
  373. Duration                                 : 1 h 45 min
  374. Bit rate                                 : 21.3 kb/s
  375. Count of elements                        : 1834
  376. Stream size                              : 16.1 MiB (0%)
  377. Title                                    : Portuguese-PGS
  378. Language                                 : Portuguese
  379. Default                                  : No
  380. Forced                                   : No
  381. Text #22
  382. ID                                       : 26
  383. Format                                   : PGS
  384. Muxing mode                              : zlib
  385. Codec ID                                 : S_HDMV/PGS
  386. Codec ID/Info                            : Picture based subtitle format used on BDs/HD-DVDs
  387. Duration                                 : 1 h 35 min
  388. Bit rate                                 : 22.0 kb/s
  389. Count of elements                        : 1900
  390. Stream size                              : 15.0 MiB (0%)
  391. Title                                    : Romanian-PGS
  392. Language                                 : Romanian
  393. Default                                  : No
  394. Forced                                   : No
  395. Text #23
  396. ID                                       : 27
  397. Format                                   : PGS
  398. Muxing mode                              : zlib
  399. Codec ID                                 : S_HDMV/PGS
  400. Codec ID/Info                            : Picture based subtitle format used on BDs/HD-DVDs
  401. Duration                                 : 1 h 41 min
  402. Bit rate                                 : 20.0 kb/s
  403. Count of elements                        : 1858
  404. Stream size                              : 14.6 MiB (0%)
  405. Title                                    : Serbian-PGS
  406. Language                                 : Serbian
  407. Default                                  : No
  408. Forced                                   : No
  409. Text #24
  410. ID                                       : 28
  411. Format                                   : PGS
  412. Muxing mode                              : zlib
  413. Codec ID                                 : S_HDMV/PGS
  414. Codec ID/Info                            : Picture based subtitle format used on BDs/HD-DVDs
  415. Duration                                 : 1 h 44 min
  416. Bit rate                                 : 19.0 kb/s
  417. Count of elements                        : 1586
  418. Stream size                              : 14.2 MiB (0%)
  419. Title                                    : Slovak-PGS
  420. Language                                 : Slovak
  421. Default                                  : No
  422. Forced                                   : No
  423. Text #25
  424. ID                                       : 29
  425. Format                                   : PGS
  426. Muxing mode                              : zlib
  427. Codec ID                                 : S_HDMV/PGS
  428. Codec ID/Info                            : Picture based subtitle format used on BDs/HD-DVDs
  429. Duration                                 : 1 h 41 min
  430. Bit rate                                 : 22.3 kb/s
  431. Count of elements                        : 1880
  432. Stream size                              : 16.2 MiB (0%)
  433. Title                                    : Slovenian-PGS
  434. Language                                 : Slovenian
  435. Default                                  : No
  436. Forced                                   : No
  437. Text #26
  438. ID                                       : 30
  439. Format                                   : PGS
  440. Muxing mode                              : zlib
  441. Codec ID                                 : S_HDMV/PGS
  442. Codec ID/Info                            : Picture based subtitle format used on BDs/HD-DVDs
  443. Duration                                 : 1 h 44 min
  444. Bit rate                                 : 18.7 kb/s
  445. Count of elements                        : 1950
  446. Stream size                              : 14.0 MiB (0%)
  447. Title                                    : Spanish-PGS
  448. Language                                 : Spanish
  449. Default                                  : No
  450. Forced                                   : No
  451. Text #27
  452. ID                                       : 31
  453. Format                                   : PGS
  454. Muxing mode                              : zlib
  455. Codec ID                                 : S_HDMV/PGS
  456. Codec ID/Info                            : Picture based subtitle format used on BDs/HD-DVDs
  457. Duration                                 : 1 h 45 min
  458. Bit rate                                 : 21.0 kb/s
  459. Count of elements                        : 2002
  460. Stream size                              : 15.9 MiB (0%)
  461. Title                                    : Spanish-PGS
  462. Language                                 : Spanish
  463. Default                                  : No
  464. Forced                                   : No
  465. Text #28
  466. ID                                       : 32
  467. Format                                   : PGS
  468. Muxing mode                              : zlib
  469. Codec ID                                 : S_HDMV/PGS
  470. Codec ID/Info                            : Picture based subtitle format used on BDs/HD-DVDs
  471. Duration                                 : 1 h 44 min
  472. Bit rate                                 : 17.6 kb/s
  473. Count of elements                        : 1574
  474. Stream size                              : 13.1 MiB (0%)
  475. Title                                    : Swedish-PGS
  476. Language                                 : Swedish
  477. Default                                  : No
  478. Forced                                   : No
  479. Text #29
  480. ID                                       : 33
  481. Format                                   : PGS
  482. Muxing mode                              : zlib
  483. Codec ID                                 : S_HDMV/PGS
  484. Codec ID/Info                            : Picture based subtitle format used on BDs/HD-DVDs
  485. Duration                                 : 1 h 44 min
  486. Bit rate                                 : 23.0 kb/s
  487. Count of elements                        : 1824
  488. Stream size                              : 17.1 MiB (0%)
  489. Title                                    : Turkish-PGS
  490. Language                                 : Turkish
  491. Default                                  : No
  492. Forced                                   : No
  493. Menu
  494. 00:00:00.000                             : en:Chapter 1
  495. 00:07:02.922                             : en:Chapter 2
  496. 00:14:45.551                             : en:Chapter 3
  497. 00:24:37.476                             : en:Chapter 4
  498. 00:30:17.190                             : en:Chapter 5
  499. 00:35:55.070                             : en:Chapter 6
  500. 00:43:42.453                             : en:Chapter 7
  501. 00:47:06.407                             : en:Chapter 8
  502. 00:53:23.575                             : en:Chapter 9
  503. 01:02:48.598                             : en:Chapter 10
  504. 01:10:41.654                             : en:Chapter 11
  505. 01:14:14.700                             : en:Chapter 12
  506. 01:17:59.884                             : en:Chapter 13
  507. 01:23:17.201                             : en:Chapter 14
  508. 01:25:39.384                             : en:Chapter 15
  509. 01:32:07.313                             : en:Chapter 16
  510. 01:42:42.156                             : en:Chapter 17
复制代码







                                       
                                       

                                       
                                       
                                       




回复

使用道具 举报

懒得打字嘛,点击右侧快捷回复 【右侧内容,后台自定义】
您需要登录后才可以回帖 登录 | 立即加入

本版积分规则

Archiver|小黑屋| 蓝光电影网 |网站地图

Copyright © 2021 Comsenz Inc. Powered by 蓝光电影网

蓝光电影网

本站内容由用户自主分享和转载自互联网,转载目的在于传递更多信息,并不代表本网赞同其观点和对其真实性负责。

如有侵权、违反国家法律政策行为,请联系我们,我们会第一时间及时清除和处理!

举报反馈邮箱:[email protected]

快速回复 返回顶部 返回列表