找回密码

蓝光电影网

查看: 76|回复: 0

[2160p] 精神错乱/爆怒时速 Unhinged.2020.2160p.WEB.H265-HOTLiPS 9.64GB

[复制链接]
蓝光币
1082
发表于 2020-10-24 13:17:45 | 显示全部楼层 |阅读模式


◎译  名 精神庞杂/爆怒时速(港)/精神变态/超危险驾驶(台)
◎片  名 Unhinged
◎年  代 2020
◎产  地 美国
◎类  别 惊悚
◎语  言 英语
◎上映日期 2020-07-31(澳大利亚) / 2020-08-21(美国)
◎IMDb评分  6.1/10 from 11167 users
◎IMDb链接  https://www.imdb.com/title/tt10059518/
◎豆瓣评分 6.1/10 from 703 users
◎豆瓣链接 https://movie.douban.com/subject/33442707/
◎片  长 90分钟
◎导  演 德瑞克·伯特 Derrick Borte
◎编  剧 卡尔·埃尔斯沃斯 Carl Ellsworth
◎主  演 罗素·克劳 Russell Crowe
       凯伦·皮斯托里斯 Caren Pistorius
       加布里埃尔·贝特曼 Gabriel Bateman
       吉米·辛普森 Jimmi Simpson
       奥斯汀·麦肯齐 Austin P. McKenzie
       朱丽叶·乔伊纳 Juliene Joyner
       斯蒂芬·路易斯·皮尔 Stephen Louis Grush
       安妮·雷登 Anne Leighton
       德文·泰勒 Devyn A. Tyler
       西尔维娅·格雷丝·克里姆 Sylvia Grace Crim
       维维安·弗莱明·阿尔瓦雷斯 Vivian Fleming-Alvarez
       萨曼莎·博利厄 Samantha Beaulieu
       露西·浮士德 Lucy Faust
       谢丽尔·布朗 Scheryl W Brown
       迈克尔·帕帕约翰 Michael Papajohn
       格蕾琴·科尔纳 Gretchen Koerner
       唐娜·杜普兰提尔 Donna Duplantier
       布雷特·斯姆兹 Brett Smrz
       安德鲁·莫尔加多 Andrew Morgado
       戈登·德克海默 Gordon Dexheimer
       蒂莫西·辛里奇斯 Timothy Hinrichs
◎标  签 惊悚 | 犯罪 | 美国 | 2020 | 罗素·克劳 | 美国电影 | 罗素克劳 | 悬疑
◎简  介


  报告两辆车路上发生磨擦,“公路泄愤”升级:克劳饰演的男人抑制不住愤慨发飙了,拿着锤子和刀追到了对方母子家里,破坏、跟踪、撞车、纠缠身旁人……
  1. Video
  2. ID                                       : 1
  3. Format                                   : HEVC
  4. Format/Info                              : High Efficiency Video Coding
  5. Format profile                           : [email protected]@Main
  6. Codec ID                                 : V_MPEGH/ISO/HEVC
  7. Duration                                 : 1 h 30 min
  8. Bit rate                                 : 14.9 Mb/s
  9. Width                                    : 3 840 pixels
  10. Height                                   : 2 160 pixels
  11. Display aspect ratio                     : 16:9
  12. Frame rate mode                          : Constant
  13. Frame rate                               : 23.976 (24000/1001/189150) FPS
  14. Color space                              : YUV
  15. Chroma subsampling                       : 4:2:0
  16. Bit depth                                : 8 bits
  17. Bits/(Pixel*Frame)                       : 0.075
  18. Stream size                              : 9.37 GiB (98%)
  19. Language                                 : English
  20. Default                                  : Yes
  21. Forced                                   : No
  22. Color range                              : Limited
  23. Color primaries                          : BT.709
  24. Transfer characteristics                 : BT.709
  25. Matrix coefficients                      : BT.709

  26. Audio
  27. ID                                       : 2
  28. Format                                   : E-AC-3
  29. Format/Info                              : Enhanced AC-3
  30. Commercial name                          : Dolby Digital Plus
  31. Codec ID                                 : A_EAC3
  32. Duration                                 : 1 h 30 min
  33. Bit rate mode                            : Constant
  34. Bit rate                                 : 256 kb/s
  35. Channel(s)                               : 6 channels
  36. Channel layout                           : L R C LFE Ls Rs
  37. Sampling rate                            : 48.0 kHz
  38. Frame rate                               : 31.250 FPS (1536 SPF)
  39. Compression mode                         : Lossy
  40. Stream size                              : 165 MiB (2%)
  41. Title                                    : English
  42. Language                                 : English
  43. Service kind                             : Complete Main
  44. Default                                  : Yes
  45. Forced                                   : No

  46. Text
  47. ID                                       : 3
  48. Format                                   : UTF-8
  49. Codec ID                                 : S_TEXT/UTF8
  50. Codec ID/Info                            : UTF-8 Plain Text
  51. Duration                                 : 1 h 21 min
  52. Bit rate                                 : 61 b/s
  53. Count of elements                        : 1193
  54. Stream size                              : 36.5 KiB (0%)
  55. Title                                    : English (SDH)
  56. Language                                 : English
  57. Default                                  : No
  58. Forced                                   : No
复制代码





                                       
                                       

                                       
                                       
                                       




回复

使用道具 举报

懒得打字嘛,点击右侧快捷回复 【右侧内容,后台自定义】
您需要登录后才可以回帖 登录 | 立即加入

本版积分规则

Archiver|小黑屋| 蓝光电影网 |网站地图

Copyright © 2021 Comsenz Inc. Powered by 蓝光电影网

蓝光电影网

本站内容由用户自主分享和转载自互联网,转载目的在于传递更多信息,并不代表本网赞同其观点和对其真实性负责。

如有侵权、违反国家法律政策行为,请联系我们,我们会第一时间及时清除和处理!

举报反馈邮箱:[email protected]

快速回复 返回顶部 返回列表