找回密码

蓝光电影网

查看: 138|回复: 0

[剧情] 飞女刑事/太妹刑事 Sukeban.deka.the.Movie.1987.JAPANESE.1080p.AMZN.WEBRip.DDP2.0.x264-ARiN 6.61GB

[复制链接]
蓝光币
1084
发表于 2021-8-20 00:57:22 | 显示全部楼层 |阅读模式


◎译  名 飞女刑事/太妹刑事
◎片  名 スケバン刑事
◎年  代 1987
◎产  地 日本
◎类  别 剧情 / 行动
◎语  言 日语
◎上映日期 1987-02-14
◎IMDb评分  6.6/10 from 155 users
◎IMDb链接  https://www.imdb.com/title/tt0188212/
◎豆瓣评分 /10 from 0 users
◎豆瓣链接 https://movie.douban.com/subject/2222987/
◎片  长 97分钟
◎编  剧 桥本以藏 Iz? Hashimoto / 土屋斗纪雄 Tokio Tsuchiya
◎主  演 南野阳子 Y?ko Minamino
       伊武雅刀 Masat? Ibu
       蟹江敬三 Keiz? Kani'e
       长门裕之 Hiroyuki Nagato
       内藤武敏 Taketoshi Nait?
       相乐晴子 Haruko Sagara
       坂上忍 Shinobu Sakagami
       杉本哲太 Tetta Sugimoto
       吉泽秋绘 Akie Yoshizawa
       村松克巳 Katsumi Muramatsu
       浅香唯 Yui Asaka
       大西结花 Yuka ?nishi
       中村由真 Yuma Nakamura
◎标  签 日本电影 | 日本 | 南野阳子 | 行动 | 电影 | 日影 | 相乐晴子 | 風間三姉妹の逆襲
◎简  介


  『スケバン刑事』のタイトルで、テレビシリーズ終了後にその後日談という形で製作された。1987年2月14日、東映系にて公開。『スケバン刑事』シリーズとしては初の映画化作品となる。放映中のテレビシリーズ第3作『スケバン刑事III 少女忍法帖伝奇』のキャラクターも登場し、二代目サキ(陽子)と三代目サキ(風間唯)の共演などが話題となった。劇中後半に二代目サキが4倍の重量、16倍の破壊力を持つ「究極のヨーヨー」を利用する(右手で左手首を持ち、大きく反動を付けながら投げるのが特徴。その関係から陽子は右脇部にプロテクターを装着する。そして投げたヨーヨーはドリルのように回転する)。ヨーヨーという兵器の特征上、利用者にも大きな負担が伴うという諸刃の剣を用いて自らも傷つきながら強大な敵と戦うのが見所となっている。 また、校長服部の正体がサイボーグという設定で、戦闘中に剥離した皮膚から金属製の内部を暴露させた。メカ部分のデザインは出渕裕。同時上映は『カンフーキッド 好小子』。
  
  スタッフ
  
  製作:東映、フジテレビ
  
  監督:田中秀夫
  
  剧本:橋本以蔵、土屋斗紀雄
  
  キャスト
  
  映画オリジナルのみ記載。
  
  服部:伊武雅刀
  
  加藤めぐみ:小林亜也子(映画オーディション優勝者)
  
  萩原和夫:坂上忍
  
  加藤喜久男:杉本哲太
  
  黒幕:内藤武敏
  
  ※作者の和田慎二も「ヨーヨー売りのおじさん」役で冒頭に出演している。
  
  主題歌?挿入歌
  
  「楽園のDoor」作詞:小倉めぐみ 作曲:来生たかお 編曲:萩田光雄 唄:南野陽子
  1. Video
  2. ID                                       : 1
  3. Format                                   : AVC
  4. Format/Info                              : Advanced Video Codec
  5. Format profile                           : [email protected]
  6. Format settings                          : CABAC / 4 Ref Frames
  7. Format settings, CABAC                   : Yes
  8. Format settings, Reference frames        : 4 frames
  9. Format settings, GOP                     : M=4, N=48
  10. Codec ID                                 : V_MPEG4/ISO/AVC
  11. Duration                                 : 1 h 32 min
  12. Bit rate mode                            : Constant
  13. Bit rate                                 : 10 000 kb/s
  14. Width                                    : 1 920 pixels
  15. Height                                   : 960 pixels
  16. Display aspect ratio                     : 2.000
  17. Frame rate mode                          : Constant
  18. Frame rate                               : 23.976 (24000/1001/189150) FPS
  19. Color space                              : YUV
  20. Chroma subsampling                       : 4:2:0
  21. Bit depth                                : 8 bits
  22. Scan type                                : Progressive
  23. Bits/(Pixel*Frame)                       : 0.226
  24. Stream size                              : 6.47 GiB (98%)
  25. Default                                  : Yes
  26. Forced                                   : No
  27. Color range                              : Limited
  28. Color primaries                          : BT.709
  29. Transfer characteristics                 : BT.709
  30. Matrix coefficients                      : BT.709
  31. Audio
  32. ID                                       : 2
  33. Format                                   : E-AC-3
  34. Format/Info                              : Enhanced AC-3
  35. Commercial name                          : Dolby Digital Plus
  36. Codec ID                                 : A_EAC3
  37. Duration                                 : 1 h 32 min
  38. Bit rate mode                            : Constant
  39. Bit rate                                 : 224 kb/s
  40. Channel(s)                               : 2 channels
  41. Channel layout                           : L R
  42. Sampling rate                            : 48.0 kHz
  43. Frame rate                               : 31.250 FPS (1536 SPF)
  44. Compression mode                         : Lossy
  45. Stream size                              : 148 MiB (2%)
  46. Language                                 : Japanese
  47. Service kind                             : Complete Main
  48. Default                                  : Yes
  49. Forced                                   : No
  50. Text
  51. ID                                       : 3
  52. Format                                   : UTF-8
  53. Codec ID                                 : S_TEXT/UTF8
  54. Codec ID/Info                            : UTF-8 Plain Text
  55. Duration                                 : 1 h 31 min
  56. Bit rate                                 : 35 b/s
  57. Count of elements                        : 686
  58. Stream size                              : 23.7 KiB (0%)
  59. Language                                 : English
  60. Default                                  : No
  61. Forced                                   : No
复制代码






                                       
                                       

                                       
                                       
                                       




回复

使用道具 举报

懒得打字嘛,点击右侧快捷回复 【右侧内容,后台自定义】
您需要登录后才可以回帖 登录 | 立即加入

本版积分规则

Archiver|小黑屋| 蓝光电影网 |网站地图

Copyright © 2021 Comsenz Inc. Powered by 蓝光电影网

蓝光电影网

本站内容由用户自主分享和转载自互联网,转载目的在于传递更多信息,并不代表本网赞同其观点和对其真实性负责。

如有侵权、违反国家法律政策行为,请联系我们,我们会第一时间及时清除和处理!

举报反馈邮箱:[email protected]

快速回复 返回顶部 返回列表