找回密码

蓝光电影网

查看: 237|回复: 0

[UHD.HEVC] 动物屋 Animal.House.1978.2160p.BluRay.REMUX.HEVC.DTS-X.7.1-FGT 71.02GB

[复制链接]
蓝光币
1078
发表于 2021-5-17 09:18:07 | 显示全部楼层 |阅读模式
[img][/img]

◎译  名 动物屋/National Lampoon's Animal House
◎片  名 Animal House
◎年  代 1978
◎产  地 美国
◎类  别 笑剧 / 恋爱
◎语  言 英语,意大利语
◎上映日期 1978-07-28
◎豆瓣评分 6.7/10 from 615 users
◎豆瓣链接 https://movie.douban.com/subject/1296269/
◎片  长 109 分钟
◎导  演 约翰·兰迪斯 John Landis
◎编  剧 哈罗德·雷米斯 Harold Ramis / 道格拉斯·肯尼 Douglas Kenney / Chris Miller
◎主  演 汤姆·休斯克 Tom Hulce
       斯蒂芬·福斯特 Stephen Furst
       马克·梅特卡夫 Mark Metcalf
       玛丽·路易丝·韦勒 Mary Louise Weller
       玛莎·史姑娘 Martha Smith
       詹姆斯·多顿 James Daughton
       Robert Elliott
       Otis Day
       朱迪丝·贝鲁西-皮萨诺 Judith Belushi-Pisano
       唐纳德·萨瑟兰 Donald Sutherland
       约翰·兰迪斯 John Landis
       桑妮·约翰逊 Sunny Johnson
       凯文·贝肯 Kevin Bacon
       Chris Miller
       约翰·贝鲁西 John Belushi
       Robert Cray
       史蒂芬·比肖普 Stephen Bishop
       弗娜·布鲁姆 Verna Bloom
       凯伦·阿兰 Karen Allen
       约翰·沃侬 John Vernon
       西萨尔·达诺瓦 Cesare Danova
       道格拉斯·肯尼 Douglas Kenney
       提姆·麦锡森 Tim Matheson
       詹姆斯·维度斯 James Widdoes
       布鲁斯·麦克吉尔 Bruce McGill
       彼得·里格特 Peter Riegert
◎标  签 笑剧 | 美国 | 校园 | 美国电影 | 1978 | 青春 | 1970s | CULT
◎简  介


  菲博学园中有一个门生构造,介入的满是白种英语系的有钱人,很少人能忍受他们,只要汀沃摩能和伪善的他们相处,沃摩用什么使他们佩服?
  
  作为一部很成功的笑剧,影片的宝贵之处在于在疯狂与实在之间把握平衡,不让笑料过度而又使情节有所启发。
  1. Video
  2. ID                                       : 1
  3. ID in the original source medium         : 4113 (0x1011)
  4. Format                                   : HEVC
  5. Format/Info                              : High Efficiency Video Coding
  6. Format profile                           : Main [email protected]@High
  7. HDR format                               : SMPTE ST 2086, HDR10 compatible
  8. Codec ID                                 : V_MPEGH/ISO/HEVC
  9. Duration                                 : 1 h 48 min
  10. Bit rate                                 : 85.2 Mb/s
  11. Width                                    : 3 840 pixels
  12. Height                                   : 2 160 pixels
  13. Display aspect ratio                     : 16:9
  14. Frame rate mode                          : Constant
  15. Frame rate                               : 23.976 (24000/1001/189150) FPS
  16. Color space                              : YUV
  17. Chroma subsampling                       : 4:2:0 (Type 2)
  18. Bit depth                                : 10 bits
  19. Bits/(Pixel*Frame)                       : 0.428
  20. Stream size                              : 64.7 GiB (91%)
  21. Writing library                          : ATEME Titan File 3.9.6 (4.9.6.2)        
  22. Language                                 : English
  23. Default                                  : No
  24. Forced                                   : No
  25. Color range                              : Limited
  26. Color primaries                          : BT.2020
  27. Transfer characteristics                 : PQ
  28. Matrix coefficients                      : BT.2020 non-constant
  29. Mastering display color primaries        : Display P3
  30. Mastering display luminance              : min: 0.0050 cd/m2, max: 1000 cd/m2
  31. Maximum Content Light Level              : 962 cd/m2
  32. Maximum Frame-Average Light Level        : 81 cd/m2
  33. Original source medium                   : Blu-ray
  34. Audio #1
  35. ID                                       : 2
  36. ID in the original source medium         : 4352 (0x1100)
  37. Format                                   : DTS XLL X
  38. Format/Info                              : Digital Theater Systems
  39. Commercial name                          : DTS-HD Master Audio
  40. Codec ID                                 : A_DTS
  41. Duration                                 : 1 h 48 min
  42. Bit rate mode                            : Variable
  43. Bit rate                                 : 5 531 kb/s
  44. Channel(s)                               : 8 channels
  45. Channel(s)_Original                      : Object Based
  46. ChannelLayout_Original                   : Object Based
  47. Sampling rate                            : 48.0 kHz
  48. Frame rate                               : 93.750 FPS (512 SPF)
  49. Bit depth                                : 24 bits
  50. Stream size                              : 4.20 GiB (6%)
  51. Title                                    : DTS-X 7.1
  52. Language                                 : English
  53. Default                                  : Yes
  54. Forced                                   : No
  55. Original source medium                   : Blu-ray
  56. Audio #2
  57. ID                                       : 3
  58. Format                                   : AC-3
  59. Format/Info                              : Audio Coding 3
  60. Commercial name                          : Dolby Digital
  61. Codec ID                                 : A_AC3
  62. Duration                                 : 1 h 48 min
  63. Bit rate mode                            : Constant
  64. Bit rate                                 : 640 kb/s
  65. Channel(s)                               : 6 channels
  66. Channel layout                           : L R C LFE Ls Rs
  67. Sampling rate                            : 48.0 kHz
  68. Frame rate                               : 31.250 FPS (1536 SPF)
  69. Compression mode                         : Lossy
  70. Stream size                              : 497 MiB (1%)
  71. Title                                    : DD 5.1
  72. Language                                 : English
  73. Service kind                             : Complete Main
  74. Default                                  : No
  75. Forced                                   : No
  76. Audio #3
  77. ID                                       : 4
  78. ID in the original source medium         : 4353 (0x1101)
  79. Format                                   : DTS
  80. Format/Info                              : Digital Theater Systems
  81. Codec ID                                 : A_DTS
  82. Duration                                 : 1 h 48 min
  83. Bit rate mode                            : Constant
  84. Bit rate                                 : 447 kb/s
  85. Channel(s)                               : 2 channels
  86. Channel layout                           : L R
  87. Sampling rate                            : 48.0 kHz
  88. Frame rate                               : 93.750 FPS (512 SPF)
  89. Bit depth                                : 24 bits
  90. Compression mode                         : Lossy
  91. Stream size                              : 347 MiB (0%)
  92. Title                                    : DTS 2.0
  93. Language                                 : French
  94. Default                                  : No
  95. Forced                                   : No
  96. Original source medium                   : Blu-ray
  97. Audio #4
  98. ID                                       : 5
  99. ID in the original source medium         : 4354 (0x1102)
  100. Format                                   : DTS
  101. Format/Info                              : Digital Theater Systems
  102. Codec ID                                 : A_DTS
  103. Duration                                 : 1 h 48 min
  104. Bit rate mode                            : Constant
  105. Bit rate                                 : 447 kb/s
  106. Channel(s)                               : 2 channels
  107. Channel layout                           : L R
  108. Sampling rate                            : 48.0 kHz
  109. Frame rate                               : 93.750 FPS (512 SPF)
  110. Bit depth                                : 24 bits
  111. Compression mode                         : Lossy
  112. Stream size                              : 347 MiB (0%)
  113. Title                                    : DTS 2.0
  114. Language                                 : Spanish
  115. Default                                  : No
  116. Forced                                   : No
  117. Original source medium                   : Blu-ray
  118. Audio #5
  119. ID                                       : 6
  120. ID in the original source medium         : 4355 (0x1103)
  121. Format                                   : DTS
  122. Format/Info                              : Digital Theater Systems
  123. Codec ID                                 : A_DTS
  124. Duration                                 : 1 h 48 min
  125. Bit rate mode                            : Constant
  126. Bit rate                                 : 768 kb/s
  127. Channel(s)                               : 6 channels
  128. Channel layout                           : C L R Ls Rs LFE
  129. Sampling rate                            : 48.0 kHz
  130. Frame rate                               : 93.750 FPS (512 SPF)
  131. Bit depth                                : 24 bits
  132. Compression mode                         : Lossy
  133. Stream size                              : 597 MiB (1%)
  134. Title                                    : DTS 5.1
  135. Language                                 : Japanese
  136. Default                                  : No
  137. Forced                                   : No
  138. Original source medium                   : Blu-ray
  139. Audio #6
  140. ID                                       : 7
  141. ID in the original source medium         : 4356 (0x1104)
  142. Format                                   : DTS
  143. Format/Info                              : Digital Theater Systems
  144. Codec ID                                 : A_DTS
  145. Duration                                 : 1 h 48 min
  146. Bit rate mode                            : Constant
  147. Bit rate                                 : 447 kb/s
  148. Channel(s)                               : 2 channels
  149. Channel layout                           : L R
  150. Sampling rate                            : 48.0 kHz
  151. Frame rate                               : 93.750 FPS (512 SPF)
  152. Bit depth                                : 24 bits
  153. Compression mode                         : Lossy
  154. Stream size                              : 347 MiB (0%)
  155. Title                                    : DTS 2.0
  156. Language                                 : Italian
  157. Default                                  : No
  158. Forced                                   : No
  159. Original source medium                   : Blu-ray
  160. Text #1
  161. ID                                       : 8
  162. Format                                   : UTF-8
  163. Codec ID                                 : S_TEXT/UTF8
  164. Codec ID/Info                            : UTF-8 Plain Text
  165. Duration                                 : 1 h 41 min
  166. Bit rate                                 : 47 b/s
  167. Count of elements                        : 1078
  168. Stream size                              : 35.6 KiB (0%)
  169. Title                                    : English-SRT
  170. Language                                 : English
  171. Default                                  : Yes
  172. Forced                                   : No
  173. Text #2
  174. ID                                       : 9
  175. ID in the original source medium         : 4768 (0x12A0)
  176. Format                                   : PGS
  177. Muxing mode                              : zlib
  178. Codec ID                                 : S_HDMV/PGS
  179. Codec ID/Info                            : Picture based subtitle format used on BDs/HD-DVDs
  180. Duration                                 : 1 h 43 min
  181. Bit rate                                 : 33.2 kb/s
  182. Count of elements                        : 2386
  183. Stream size                              : 24.5 MiB (0%)
  184. Title                                    : English-PGS
  185. Language                                 : English
  186. Default                                  : No
  187. Forced                                   : No
  188. Original source medium                   : Blu-ray
  189. Text #3
  190. ID                                       : 10
  191. ID in the original source medium         : 4769 (0x12A1)
  192. Format                                   : PGS
  193. Muxing mode                              : zlib
  194. Codec ID                                 : S_HDMV/PGS
  195. Codec ID/Info                            : Picture based subtitle format used on BDs/HD-DVDs
  196. Duration                                 : 1 h 48 min
  197. Bit rate                                 : 25.2 kb/s
  198. Count of elements                        : 2042
  199. Stream size                              : 19.5 MiB (0%)
  200. Title                                    : French-PGS
  201. Language                                 : French
  202. Default                                  : No
  203. Forced                                   : No
  204. Original source medium                   : Blu-ray
  205. Text #4
  206. ID                                       : 11
  207. ID in the original source medium         : 4770 (0x12A2)
  208. Format                                   : PGS
  209. Muxing mode                              : zlib
  210. Codec ID                                 : S_HDMV/PGS
  211. Codec ID/Info                            : Picture based subtitle format used on BDs/HD-DVDs
  212. Duration                                 : 1 h 46 min
  213. Bit rate                                 : 27.2 kb/s
  214. Count of elements                        : 2038
  215. Stream size                              : 20.8 MiB (0%)
  216. Title                                    : French-PGS
  217. Language                                 : French
  218. Default                                  : No
  219. Forced                                   : No
  220. Original source medium                   : Blu-ray
  221. Text #5
  222. ID                                       : 12
  223. ID in the original source medium         : 4771 (0x12A3)
  224. Format                                   : PGS
  225. Muxing mode                              : zlib
  226. Codec ID                                 : S_HDMV/PGS
  227. Codec ID/Info                            : Picture based subtitle format used on BDs/HD-DVDs
  228. Duration                                 : 1 h 48 min
  229. Bit rate                                 : 29.5 kb/s
  230. Count of elements                        : 2042
  231. Stream size                              : 22.9 MiB (0%)
  232. Title                                    : Spanish-PGS
  233. Language                                 : Spanish
  234. Default                                  : No
  235. Forced                                   : No
  236. Original source medium                   : Blu-ray
  237. Text #6
  238. ID                                       : 13
  239. ID in the original source medium         : 4772 (0x12A4)
  240. Format                                   : PGS
  241. Muxing mode                              : zlib
  242. Codec ID                                 : S_HDMV/PGS
  243. Codec ID/Info                            : Picture based subtitle format used on BDs/HD-DVDs
  244. Duration                                 : 1 h 48 min
  245. Bit rate                                 : 16.9 kb/s
  246. Count of elements                        : 1804
  247. Stream size                              : 13.1 MiB (0%)
  248. Title                                    : Japanese-PGS
  249. Language                                 : Japanese
  250. Default                                  : No
  251. Forced                                   : No
  252. Original source medium                   : Blu-ray
  253. Text #7
  254. ID                                       : 14
  255. ID in the original source medium         : 4773 (0x12A5)
  256. Format                                   : PGS
  257. Muxing mode                              : zlib
  258. Codec ID                                 : S_HDMV/PGS
  259. Codec ID/Info                            : Picture based subtitle format used on BDs/HD-DVDs
  260. Duration                                 : 1 h 46 min
  261. Bit rate                                 : 26.7 kb/s
  262. Count of elements                        : 2048
  263. Stream size                              : 20.4 MiB (0%)
  264. Title                                    : Italian-PGS
  265. Language                                 : Italian
  266. Default                                  : No
  267. Forced                                   : No
  268. Original source medium                   : Blu-ray
  269. Text #8
  270. ID                                       : 15
  271. ID in the original source medium         : 4774 (0x12A6)
  272. Format                                   : PGS
  273. Muxing mode                              : zlib
  274. Codec ID                                 : S_HDMV/PGS
  275. Codec ID/Info                            : Picture based subtitle format used on BDs/HD-DVDs
  276. Duration                                 : 1 h 48 min
  277. Bit rate                                 : 25.1 kb/s
  278. Count of elements                        : 2038
  279. Stream size                              : 19.5 MiB (0%)
  280. Title                                    : Danish-PGS
  281. Language                                 : Danish
  282. Default                                  : No
  283. Forced                                   : No
  284. Original source medium                   : Blu-ray
  285. Text #9
  286. ID                                       : 16
  287. ID in the original source medium         : 4775 (0x12A7)
  288. Format                                   : PGS
  289. Muxing mode                              : zlib
  290. Codec ID                                 : S_HDMV/PGS
  291. Codec ID/Info                            : Picture based subtitle format used on BDs/HD-DVDs
  292. Duration                                 : 1 h 46 min
  293. Bit rate                                 : 25.0 kb/s
  294. Count of elements                        : 1968
  295. Stream size                              : 19.1 MiB (0%)
  296. Title                                    : Finnish-PGS
  297. Language                                 : Finnish
  298. Default                                  : No
  299. Forced                                   : No
  300. Original source medium                   : Blu-ray
  301. Text #10
  302. ID                                       : 17
  303. ID in the original source medium         : 4776 (0x12A8)
  304. Format                                   : PGS
  305. Muxing mode                              : zlib
  306. Codec ID                                 : S_HDMV/PGS
  307. Codec ID/Info                            : Picture based subtitle format used on BDs/HD-DVDs
  308. Duration                                 : 1 h 46 min
  309. Bit rate                                 : 26.5 kb/s
  310. Count of elements                        : 2036
  311. Stream size                              : 20.3 MiB (0%)
  312. Title                                    : Norwegian-PGS
  313. Language                                 : Norwegian
  314. Default                                  : No
  315. Forced                                   : No
  316. Original source medium                   : Blu-ray
  317. Text #11
  318. ID                                       : 18
  319. ID in the original source medium         : 4777 (0x12A9)
  320. Format                                   : PGS
  321. Muxing mode                              : zlib
  322. Codec ID                                 : S_HDMV/PGS
  323. Codec ID/Info                            : Picture based subtitle format used on BDs/HD-DVDs
  324. Duration                                 : 1 h 46 min
  325. Bit rate                                 : 22.9 kb/s
  326. Count of elements                        : 2038
  327. Stream size                              : 17.5 MiB (0%)
  328. Title                                    : Swedish-PGS
  329. Language                                 : Swedish
  330. Default                                  : No
  331. Forced                                   : No
  332. Original source medium                   : Blu-ray
  333. Text #12
  334. ID                                       : 19
  335. ID in the original source medium         : 4778 (0x12AA)
  336. Format                                   : PGS
  337. Muxing mode                              : zlib
  338. Codec ID                                 : S_HDMV/PGS
  339. Codec ID/Info                            : Picture based subtitle format used on BDs/HD-DVDs
  340. Duration                                 : 1 h 48 min
  341. Bit rate                                 : 23.2 kb/s
  342. Count of elements                        : 2214
  343. Stream size                              : 18.0 MiB (0%)
  344. Title                                    : Chinese-PGS
  345. Language                                 : Chinese
  346. Default                                  : No
  347. Forced                                   : No
  348. Original source medium                   : Blu-ray
  349. Text #13
  350. ID                                       : 20
  351. ID in the original source medium         : 4779 (0x12AB)
  352. Format                                   : PGS
  353. Muxing mode                              : zlib
  354. Codec ID                                 : S_HDMV/PGS
  355. Codec ID/Info                            : Picture based subtitle format used on BDs/HD-DVDs
  356. Duration                                 : 1 h 48 min
  357. Bit rate                                 : 966 b/s
  358. Count of elements                        : 52
  359. Stream size                              : 766 KiB (0%)
  360. Title                                    : French-FORCED-PGS
  361. Language                                 : French
  362. Default                                  : No
  363. Forced                                   : No
  364. Original source medium                   : Blu-ray
  365. Text #14
  366. ID                                       : 21
  367. ID in the original source medium         : 4780 (0x12AC)
  368. Format                                   : PGS
  369. Muxing mode                              : zlib
  370. Codec ID                                 : S_HDMV/PGS
  371. Codec ID/Info                            : Picture based subtitle format used on BDs/HD-DVDs
  372. Duration                                 : 1 h 48 min
  373. Bit rate                                 : 1 005 b/s
  374. Count of elements                        : 54
  375. Stream size                              : 798 KiB (0%)
  376. Title                                    : Spanish-FORCED-PGS
  377. Language                                 : Spanish
  378. Default                                  : No
  379. Forced                                   : No
  380. Original source medium                   : Blu-ray
  381. Text #15
  382. ID                                       : 22
  383. ID in the original source medium         : 4781 (0x12AD)
  384. Format                                   : PGS
  385. Muxing mode                              : zlib
  386. Codec ID                                 : S_HDMV/PGS
  387. Codec ID/Info                            : Picture based subtitle format used on BDs/HD-DVDs
  388. Duration                                 : 1 h 48 min
  389. Bit rate                                 : 1 050 b/s
  390. Count of elements                        : 78
  391. Stream size                              : 834 KiB (0%)
  392. Title                                    : Japanese-FORCED-PGS
  393. Language                                 : Japanese
  394. Default                                  : No
  395. Forced                                   : No
  396. Original source medium                   : Blu-ray
  397. Text #16
  398. ID                                       : 23
  399. ID in the original source medium         : 4782 (0x12AE)
  400. Format                                   : PGS
  401. Muxing mode                              : zlib
  402. Codec ID                                 : S_HDMV/PGS
  403. Codec ID/Info                            : Picture based subtitle format used on BDs/HD-DVDs
  404. Duration                                 : 1 h 46 min
  405. Bit rate                                 : 940 b/s
  406. Count of elements                        : 54
  407. Stream size                              : 735 KiB (0%)
  408. Title                                    : Italian-FORCED-PGS
  409. Language                                 : Italian
  410. Default                                  : No
  411. Forced                                   : No
  412. Original source medium                   : Blu-ray
  413. Menu
  414. 00:00:00.000                             : Chapter 01
  415. 00:02:35.905                             : Chapter 02
  416. 00:05:15.648                             : Chapter 03
  417. 00:11:50.418                             : Chapter 04
  418. 00:13:38.442                             : Chapter 05
  419. 00:17:18.912                             : Chapter 06
  420. 00:19:16.864                             : Chapter 07
  421. 00:22:22.132                             : Chapter 08
  422. 00:25:55.762                             : Chapter 09
  423. 00:28:05.183                             : Chapter 10
  424. 00:30:52.016                             : Chapter 11
  425. 00:31:53.786                             : Chapter 12
  426. 00:34:42.246                             : Chapter 13
  427. 00:37:11.687                             : Chapter 14
  428. 00:40:07.780                             : Chapter 15
  429. 00:43:43.203                             : Chapter 16
  430. 00:48:26.528                             : Chapter 17
  431. 00:51:05.520                             : Chapter 18
  432. 00:54:31.810                             : Chapter 19
  433. 00:57:34.742                             : Chapter 20
  434. 01:00:04.058                             : Chapter 21
  435. 01:06:09.882                             : Chapter 22
  436. 01:07:51.484                             : Chapter 23
  437. 01:09:01.303                             : Chapter 24
  438. 01:12:07.906                             : Chapter 25
  439. 01:18:15.816                             : Chapter 26
  440. 01:19:37.355                             : Chapter 27
  441. 01:21:46.526                             : Chapter 28
  442. 01:26:38.234                             : Chapter 29
  443. 01:29:11.512                             : Chapter 30
  444. 01:32:38.761                             : Chapter 31
  445. 01:36:03.257                             : Chapter 32
  446. 01:39:36.637                             : Chapter 33
  447. 01:41:21.742                             : Chapter 34
  448. 01:45:23.358                             : Chapter 35
  449. 01:48:22.954                             : Chapter 36
复制代码




                                       
                                       

                                       
                                       
                                       




回复

使用道具 举报

懒得打字嘛,点击右侧快捷回复 【右侧内容,后台自定义】
您需要登录后才可以回帖 登录 | 立即加入

本版积分规则

Archiver|小黑屋| 蓝光电影网 |网站地图

Copyright © 2021 Comsenz Inc. Powered by 蓝光电影网

蓝光电影网

本站内容由用户自主分享和转载自互联网,转载目的在于传递更多信息,并不代表本网赞同其观点和对其真实性负责。

如有侵权、违反国家法律政策行为,请联系我们,我们会第一时间及时清除和处理!

举报反馈邮箱:[email protected]

快速回复 返回顶部 返回列表