找回密码

蓝光电影网

查看: 57|回复: 0

[2160p] 第九区/D-9异形禁区 District.9.2009.2160p.BluRay.x265.10bit.SDR.DTS-HD.MA.TrueHD.7.1.Atmos-SWTYBLZ 39.66GB

[复制链接]
蓝光币
1082
发表于 2020-10-12 20:08:11 | 显示全部楼层 |阅读模式


◎译  名 第九区/D-9异形禁区(港)/第9区/第九禁区(台)
◎片  名 District 9
◎年  代 2009
◎产  地 美国,新西兰,加拿大,南非
◎类  别 剧情 / 行动 / 科幻 / 惊悚
◎语  言 英语,尼扬贾语,南非荷兰语,祖鲁语,科萨语,塞索托语
◎上映日期 2009-08-14(美国) / 2009-11-27(中国大陆)
◎IMDb评分  7.9/10 from 632075 users
◎IMDb链接  https://www.imdb.com/title/tt1136608/
◎豆瓣评分 8.3/10 from 355228 users
◎豆瓣链接 https://movie.douban.com/subject/3006772/
◎片  长 112分钟
◎导  演 尼尔·布洛姆坎普 Neill Blomkamp
◎编  剧 尼尔·布洛姆坎普 Neill Blomkamp / 特丽·塔歇尔 Terri Tatchell
◎主  演 沙尔托·科普雷 Sharlto Copley
       詹森·库伯 Jason Cope
       娜塔莉·博尔特 Nathalie Boltt
       茜尔雯·斯特赖克 Sylvaine Strike
       约翰·萨莫尔 John Sumner
       威廉·艾伦·扬 William Allen Young
       尼克·布雷克 Nick Blake
       杰德·布罗菲 Jed Brophy
       路易斯·米纳尔 Louis Minnaar
       瓦妮莎·海伍德 Vanessa Haywood
       玛丽安·胡曼 Marian Hooman
       维多利奥·莱奥纳迪 Vittorio Leonardi
       曼德拉·加杜卡 Mandla Gaduka
       约翰·范·肖尔 Johan van Schoor
       斯特拉·斯廷坎普 Stella Steenkamp
       戴维·詹姆斯 David James
       肯尼思·恩科西 Kenneth Nkosi
       蒂姆·戈登 Tim Gordon
       莫尔内·埃拉斯姆斯 Morne Erasmus
       尤金·孔巴尼瓦 Eugene Khumbanyiwa
       赫棱基维·马德拉拉 Hlengiwe Madlala
       西雅邦加·拉德贝 Siyabonga Radebe
       梅尔特·西贝尔哈亨 Melt Sieberhagen
       安德勒·奥登达尔 Andre Odendaal
       尼克·伯莱尼 Nick Boraine
       罗伯特·霍布斯 Robert Hobbs
       Barry Strydom
       Mzwandile Nqoba
       西莫·莫加瓦扎 Simo Mogwaza
       伊丽莎白玛坎达维 Elizabeth Mkandawie
       格雷格·梅尔维尔-史姑娘 Greg Melvill-Smith
       Morena Busa Sesatsa
       Themba Nkosi
       大卫·杜卡斯 David Dukas
◎标  签 科幻 | 人性 | 美国 | 第九区 | 种族 | 嘲讽 | 深思 | 2009
◎简  介


  1990年,一艘庞大的飞船出现在地球上空,人们惊慌不安,却又额外猎奇。经过一段时候严重的期待,外星飞船始终没有消息。人类终究谨慎翼翼靠近它,强行走进舱内,成果发现了不成胜数的外星人。他们描述丑陋,好像虾子,而且健康状态极差,虚弱有力。本来这是一群来自外星的难民,他们终极被地球人采取,并隔离在南非约翰内斯堡的一片地区内生活,此地名为“第九区”。经太长达20年的繁衍,外星难民的数目扩大至180万之多,且和周边人类的冲突抵触不竭,越来越多的人类呼吁将“大虾”赶出地球。
  
  MNU(列国同盟构造)经过商量,决议将外星难民迁移到更加偏僻的地区。MNU外星事务部分的奸细威库斯(Sharlto Copley 饰)专门负责搬家工作。威库斯在带动进程中狂妄随意,与当地居民抵触频频。终极,他为自己的行为支出价格,外星人的奥秘流体将其传染,威库斯渐渐酿成了外星人的样子……
◎获奖情况
  第82届奥斯卡金像奖 ?(2010)
  最好影片(提名) 卡罗琳·康宁安?/?彼得·杰克逊
  最好改编剧本(提名) 尼尔·布洛姆坎普?/?特丽·塔歇尔
  最好剪辑(提名) 祖利安·格克
  最好视觉结果(提名) 丹·考夫曼?/?彼得·迈泽尔斯?/?罗伯特·哈布罗斯?/?马特·艾特肯
  
  第67届金球奖 ?(2010)
  电影类最好编剧(提名) 尼尔·布洛姆坎普?/?特丽·塔歇尔
  
  第19届MTV电影奖 ?(2010)
  MTV电影奖最好惊骇戏表演(提名) 沙尔托·科普雷
  
  第22届芝加哥影评人协会奖 ?(2009)
  最具潜力演员(提名) 沙尔托·科普雷
  最具潜力导演 尼尔·布洛姆坎普
  
  第43届堪萨斯影评人协会奖 ?(2010)
  最好科幻/可骇片
  
  第9届凤凰城影评人协会奖 ?(2009)
  最好新人导演 尼尔·布洛姆坎普
  
  第12届美国青少年挑选奖 ?(2010)
  最好科幻电影(提名)
  最好科幻电影男演员(提名) 沙尔托·科普雷
  1. Video
  2. ID                                       : 1
  3. Format                                   : HEVC
  4. Format/Info                              : High Efficiency Video Coding
  5. Format profile                           : Main [email protected]@High
  6. Codec ID                                 : V_MPEGH/ISO/HEVC
  7. Duration                                 : 1 h 52 min
  8. Bit rate                                 : 41.6 Mb/s
  9. Width                                    : 3 840 pixels
  10. Height                                   : 2 076 pixels
  11. Display aspect ratio                     : 1.85:1
  12. Frame rate mode                          : Constant
  13. Frame rate                               : 23.976 (24000/1001/189150) FPS
  14. Color space                              : YUV
  15. Chroma subsampling                       : 4:2:0
  16. Bit depth                                : 10 bits
  17. Bits/(Pixel*Frame)                       : 0.218
  18. Stream size                              : 32.6 GiB (83%)
  19. Title                                    : District.9.2009.2160p.BluRay.x265.10bit.SDR.DTS-HD.MA.TrueHD.7.1.Atmos-SWTYBLZ
  20. Writing library                          : x265 3.0ed72af837053:[Windows][GCC 8.2.0][64 bit] 10bit
  21. Encoding settings                        : cpuid=1111039 / frame-threads=6 / numa-pools=40 / wpp / no-pmode / no-pme / no-psnr / no-ssim / log-level=2 / input-csp=1 / input-res=3840x2076 / interlace=0 / total-frames=161496 / level-idc=51 / high-tier=1 / uhd-bd=0 / ref=3 / no-allow-non-conformance / repeat-headers / annexb / aud / hrd / info / hash=0 / no-temporal-layers / no-open-gop / min-keyint=1 / keyint=24 / gop-lookahead=0 / bframes=4 / b-adapt=2 / b-pyramid / bframe-bias=0 / rc-lookahead=25 / lookahead-slices=4 / scenecut=40 / radl=0 / no-splice / no-intra-refresh / ctu=64 / min-cu-size=8 / no-rect / no-amp / max-tu-size=32 / tu-inter-depth=1 / tu-intra-depth=1 / limit-tu=0 / rdoq-level=0 / dynamic-rd=0.00 / no-ssim-rd / signhide / no-tskip / nr-intra=0 / nr-inter=0 / no-constrained-intra / strong-intra-smoothing / max-merge=2 / limit-refs=3 / no-limit-modes / me=1 / subme=2 / merange=57 / temporal-mvp / weightp / no-weightb / no-analyze-src-pics / deblock=0:0 / no-sao / no-sao-non-deblock / rd=3 / no-early-skip / rskip / no-fast-intra / no-tskip-fast / no-cu-lossless / no-b-intra / no-splitrd-skip / rdpenalty=0 / psy-rd=2.00 / psy-rdoq=0.00 / no-rd-refine / no-lossless / cbqpoffs=0 / crqpoffs=0 / rc=crf / crf=16.0 / qcomp=0.60 / qpstep=4 / stats-write=0 / stats-read=0 / vbv-maxrate=160000 / vbv-bufsize=160000 / vbv-init=0.9 / crf-max=0.0 / crf-min=0.0 / ipratio=1.40 / pbratio=1.30 / aq-mode=1 / aq-strength=1.00 / cutree / zone-count=0 / no-strict-cbr / qg-size=32 / no-rc-grain / qpmax=69 / qpmin=0 / no-const-vbv / sar=1 / overscan=0 / videoformat=5 / range=0 / colorprim=2 / transfer=2 / colormatrix=2 / chromaloc=0 / display-window=0 / max-cll=0,0 / min-luma=0 / max-luma=1023 / log2-max-poc-lsb=8 / vui-timing-info / vui-hrd-info / slices=1 / opt-qp-pps / opt-ref-list-length-pps / no-multi-pass-opt-rps / scenecut-bias=0.05 / no-opt-cu-delta-qp / no-aq-motion / no-hdr / no-hdr-opt / no-dhdr10-opt / no-idr-recovery-sei / analysis-reuse-level=5 / scale-factor=0 / refine-intra=0 / refine-inter=0 / refine-mv=0 / refine-ctu-distortion=0 / no-limit-sao / ctu-info=0 / no-lowpass-dct / refine-analysis-type=0 / copy-pic=1 / max-ausize-factor=1.0 / no-dynamic-refine / no-single-sei / no-hevc-aq / qp-adaptation-range=1.00
  22. Language                                 : English
  23. Default                                  : Yes
  24. Forced                                   : No
  25. Audio #1
  26. ID                                       : 2
  27. ID in the original source medium         : 4352 (0x1100)
  28. Format                                   : MLP FBA 16-ch
  29. Format/Info                              : Meridian Lossless Packing FBA with 16-channel presentation
  30. Commercial name                          : Dolby TrueHD with Dolby Atmos
  31. Codec ID                                 : A_TRUEHD
  32. Duration                                 : 1 h 52 min
  33. Bit rate mode                            : Variable
  34. Bit rate                                 : 3 442 kb/s
  35. Maximum bit rate                         : 5 568 kb/s
  36. Channel(s)                               : 8 channels
  37. Channel layout                           : L R C LFE Ls Rs Lb Rb
  38. Sampling rate                            : 48.0 kHz
  39. Frame rate                               : 1 200.000 FPS (40 SPF)
  40. Compression mode                         : Lossless
  41. Stream size                              : 2.70 GiB (7%)
  42. Title                                    : District.9.2009.2160p.BluRay.x265.10bit.SDR.DTS-HD.MA.TrueHD.7.1.Atmos-SWTYBLZ
  43. Language                                 : English
  44. Default                                  : Yes
  45. Forced                                   : No
  46. Original source medium                   : Blu-ray
  47. Number of dynamic objects                : 11
  48. Bed channel count                        : 1 channel
  49. Bed channel configuration                : LFE
  50. Audio #2
  51. ID                                       : 3
  52. Format                                   : DTS XLL
  53. Format/Info                              : Digital Theater Systems
  54. Commercial name                          : DTS-HD Master Audio
  55. Codec ID                                 : A_DTS
  56. Duration                                 : 1 h 52 min
  57. Bit rate mode                            : Variable
  58. Bit rate                                 : 4 094 kb/s
  59. Channel(s)                               : 8 channels
  60. Channel layout                           : C L R LFE Lb Rb Lss Rss
  61. Sampling rate                            : 48.0 kHz
  62. Frame rate                               : 93.750 FPS (512 SPF)
  63. Bit depth                                : 24 bits
  64. Compression mode                         : Lossless
  65. Stream size                              : 3.21 GiB (8%)
  66. Title                                    : District.9.2009.2160p.BluRay.x265.10bit.SDR.DTS-HD.MA.TrueHD.7.1.Atmos-SWTYBLZ
  67. Language                                 : English
  68. Default                                  : No
  69. Forced                                   : No
  70. Audio #3
  71. ID                                       : 4
  72. ID in the original source medium         : 4352 (0x1100)
  73. Format                                   : AC-3
  74. Format/Info                              : Audio Coding 3
  75. Commercial name                          : Dolby Digital
  76. Codec ID                                 : A_AC3
  77. Duration                                 : 1 h 52 min
  78. Bit rate mode                            : Constant
  79. Bit rate                                 : 640 kb/s
  80. Channel(s)                               : 6 channels
  81. Channel layout                           : L R C LFE Ls Rs
  82. Sampling rate                            : 48.0 kHz
  83. Frame rate                               : 31.250 FPS (1536 SPF)
  84. Compression mode                         : Lossy
  85. Stream size                              : 514 MiB (1%)
  86. Title                                    : District.9.2009.2160p.BluRay.x265.10bit.SDR.DTS-HD.MA.TrueHD.7.1.Atmos-SWTYBLZ
  87. Language                                 : English
  88. Service kind                             : Complete Main
  89. Default                                  : No
  90. Forced                                   : No
  91. Original source medium                   : Blu-ray
  92. Text #1
  93. ID                                       : 5
  94. Format                                   : UTF-8
  95. Codec ID                                 : S_TEXT/UTF8
  96. Codec ID/Info                            : UTF-8 Plain Text
  97. Duration                                 : 1 h 43 min
  98. Bit rate                                 : 62 b/s
  99. Count of elements                        : 1201
  100. Stream size                              : 47.5 KiB (0%)
  101. Title                                    : English-SRT
  102. Language                                 : English
  103. Default                                  : Yes
  104. Forced                                   : No
  105. Text #2
  106. ID                                       : 6
  107. ID in the original source medium         : 4768 (0x12A0)
  108. Format                                   : PGS
  109. Muxing mode                              : zlib
  110. Codec ID                                 : S_HDMV/PGS
  111. Codec ID/Info                            : Picture based subtitle format used on BDs/HD-DVDs
  112. Duration                                 : 1 h 48 min
  113. Bit rate                                 : 43.6 kb/s
  114. Count of elements                        : 3136
  115. Stream size                              : 33.9 MiB (0%)
  116. Title                                    : English-SDH-PGS
  117. Language                                 : English
  118. Default                                  : No
  119. Forced                                   : No
  120. Original source medium                   : Blu-ray
  121. Text #3
  122. ID                                       : 7
  123. ID in the original source medium         : 4769 (0x12A1)
  124. Format                                   : PGS
  125. Muxing mode                              : zlib
  126. Codec ID                                 : S_HDMV/PGS
  127. Codec ID/Info                            : Picture based subtitle format used on BDs/HD-DVDs
  128. Duration                                 : 1 h 43 min
  129. Bit rate                                 : 36.3 kb/s
  130. Count of elements                        : 2408
  131. Stream size                              : 27.0 MiB (0%)
  132. Title                                    : English-PGS
  133. Language                                 : English
  134. Default                                  : No
  135. Forced                                   : No
  136. Original source medium                   : Blu-ray
  137. Text #4
  138. ID                                       : 8
  139. ID in the original source medium         : 4770 (0x12A2)
  140. Format                                   : PGS
  141. Muxing mode                              : zlib
  142. Codec ID                                 : S_HDMV/PGS
  143. Codec ID/Info                            : Picture based subtitle format used on BDs/HD-DVDs
  144. Duration                                 : 1 h 48 min
  145. Bit rate                                 : 43.6 kb/s
  146. Count of elements                        : 3136
  147. Stream size                              : 33.9 MiB (0%)
  148. Title                                    : English-SDH-PGS
  149. Language                                 : English
  150. Default                                  : No
  151. Forced                                   : No
  152. Original source medium                   : Blu-ray
  153. Text #5
  154. ID                                       : 9
  155. ID in the original source medium         : 4771 (0x12A3)
  156. Format                                   : PGS
  157. Muxing mode                              : zlib
  158. Codec ID                                 : S_HDMV/PGS
  159. Codec ID/Info                            : Picture based subtitle format used on BDs/HD-DVDs
  160. Duration                                 : 1 h 43 min
  161. Bit rate                                 : 36.3 kb/s
  162. Count of elements                        : 2408
  163. Stream size                              : 27.0 MiB (0%)
  164. Title                                    : English-PGS
  165. Language                                 : English
  166. Default                                  : No
  167. Forced                                   : No
  168. Original source medium                   : Blu-ray
  169. Text #6
  170. ID                                       : 10
  171. ID in the original source medium         : 4772 (0x12A4)
  172. Format                                   : PGS
  173. Muxing mode                              : zlib
  174. Codec ID                                 : S_HDMV/PGS
  175. Codec ID/Info                            : Picture based subtitle format used on BDs/HD-DVDs
  176. Duration                                 : 1 h 43 min
  177. Bit rate                                 : 19.8 kb/s
  178. Count of elements                        : 2793
  179. Stream size                              : 14.7 MiB (0%)
  180. Title                                    : Arabic-PGS
  181. Language                                 : Arabic
  182. Default                                  : No
  183. Forced                                   : No
  184. Original source medium                   : Blu-ray
  185. Text #7
  186. ID                                       : 11
  187. ID in the original source medium         : 4773 (0x12A5)
  188. Format                                   : PGS
  189. Muxing mode                              : zlib
  190. Codec ID                                 : S_HDMV/PGS
  191. Codec ID/Info                            : Picture based subtitle format used on BDs/HD-DVDs
  192. Duration                                 : 1 h 43 min
  193. Bit rate                                 : 36.7 kb/s
  194. Count of elements                        : 2958
  195. Stream size                              : 27.2 MiB (0%)
  196. Title                                    : Chinese-PGS
  197. Language                                 : Chinese
  198. Default                                  : No
  199. Forced                                   : No
  200. Original source medium                   : Blu-ray
  201. Text #8
  202. ID                                       : 12
  203. ID in the original source medium         : 4774 (0x12A6)
  204. Format                                   : PGS
  205. Muxing mode                              : zlib
  206. Codec ID                                 : S_HDMV/PGS
  207. Codec ID/Info                            : Picture based subtitle format used on BDs/HD-DVDs
  208. Duration                                 : 1 h 43 min
  209. Bit rate                                 : 36.3 kb/s
  210. Count of elements                        : 2958
  211. Stream size                              : 27.0 MiB (0%)
  212. Title                                    : Chinese-PGS
  213. Language                                 : Chinese
  214. Default                                  : No
  215. Forced                                   : No
  216. Original source medium                   : Blu-ray
  217. Text #9
  218. ID                                       : 13
  219. ID in the original source medium         : 4775 (0x12A7)
  220. Format                                   : PGS
  221. Muxing mode                              : zlib
  222. Codec ID                                 : S_HDMV/PGS
  223. Codec ID/Info                            : Picture based subtitle format used on BDs/HD-DVDs
  224. Duration                                 : 1 h 51 min
  225. Bit rate                                 : 34.3 kb/s
  226. Count of elements                        : 3362
  227. Stream size                              : 27.4 MiB (0%)
  228. Title                                    : Czech-PGS
  229. Language                                 : Czech
  230. Default                                  : No
  231. Forced                                   : No
  232. Original source medium                   : Blu-ray
  233. Text #10
  234. ID                                       : 14
  235. ID in the original source medium         : 4776 (0x12A8)
  236. Format                                   : PGS
  237. Muxing mode                              : zlib
  238. Codec ID                                 : S_HDMV/PGS
  239. Codec ID/Info                            : Picture based subtitle format used on BDs/HD-DVDs
  240. Duration                                 : 1 h 51 min
  241. Bit rate                                 : 33.8 kb/s
  242. Count of elements                        : 2944
  243. Stream size                              : 27.0 MiB (0%)
  244. Title                                    : Danish-PGS
  245. Language                                 : Danish
  246. Default                                  : No
  247. Forced                                   : No
  248. Original source medium                   : Blu-ray
  249. Text #11
  250. ID                                       : 15
  251. ID in the original source medium         : 4777 (0x12A9)
  252. Format                                   : PGS
  253. Muxing mode                              : zlib
  254. Codec ID                                 : S_HDMV/PGS
  255. Codec ID/Info                            : Picture based subtitle format used on BDs/HD-DVDs
  256. Duration                                 : 1 h 43 min
  257. Bit rate                                 : 34.4 kb/s
  258. Count of elements                        : 2768
  259. Stream size                              : 25.6 MiB (0%)
  260. Title                                    : Dutch-PGS
  261. Language                                 : Dutch
  262. Default                                  : No
  263. Forced                                   : No
  264. Original source medium                   : Blu-ray
  265. Text #12
  266. ID                                       : 16
  267. ID in the original source medium         : 4778 (0x12AA)
  268. Format                                   : PGS
  269. Muxing mode                              : zlib
  270. Codec ID                                 : S_HDMV/PGS
  271. Codec ID/Info                            : Picture based subtitle format used on BDs/HD-DVDs
  272. Duration                                 : 1 h 43 min
  273. Bit rate                                 : 36.2 kb/s
  274. Count of elements                        : 2590
  275. Stream size                              : 26.9 MiB (0%)
  276. Title                                    : Estonian-PGS
  277. Language                                 : Estonian
  278. Default                                  : No
  279. Forced                                   : No
  280. Original source medium                   : Blu-ray
  281. Text #13
  282. ID                                       : 17
  283. ID in the original source medium         : 4779 (0x12AB)
  284. Format                                   : PGS
  285. Muxing mode                              : zlib
  286. Codec ID                                 : S_HDMV/PGS
  287. Codec ID/Info                            : Picture based subtitle format used on BDs/HD-DVDs
  288. Duration                                 : 1 h 51 min
  289. Bit rate                                 : 34.8 kb/s
  290. Count of elements                        : 3032
  291. Stream size                              : 27.7 MiB (0%)
  292. Title                                    : Finnish-PGS
  293. Language                                 : Finnish
  294. Default                                  : No
  295. Forced                                   : No
  296. Original source medium                   : Blu-ray
  297. Text #14
  298. ID                                       : 18
  299. ID in the original source medium         : 4780 (0x12AC)
  300. Format                                   : PGS
  301. Muxing mode                              : zlib
  302. Codec ID                                 : S_HDMV/PGS
  303. Codec ID/Info                            : Picture based subtitle format used on BDs/HD-DVDs
  304. Duration                                 : 1 h 51 min
  305. Bit rate                                 : 34.8 kb/s
  306. Count of elements                        : 2924
  307. Stream size                              : 27.7 MiB (0%)
  308. Title                                    : French-PGS
  309. Language                                 : French
  310. Default                                  : No
  311. Forced                                   : No
  312. Original source medium                   : Blu-ray
  313. Text #15
  314. ID                                       : 19
  315. ID in the original source medium         : 4781 (0x12AD)
  316. Format                                   : PGS
  317. Muxing mode                              : zlib
  318. Codec ID                                 : S_HDMV/PGS
  319. Codec ID/Info                            : Picture based subtitle format used on BDs/HD-DVDs
  320. Duration                                 : 1 h 43 min
  321. Bit rate                                 : 49.1 kb/s
  322. Count of elements                        : 3154
  323. Stream size                              : 36.4 MiB (0%)
  324. Title                                    : German-PGS
  325. Language                                 : German
  326. Default                                  : No
  327. Forced                                   : No
  328. Original source medium                   : Blu-ray
  329. Text #16
  330. ID                                       : 20
  331. ID in the original source medium         : 4782 (0x12AE)
  332. Format                                   : PGS
  333. Muxing mode                              : zlib
  334. Codec ID                                 : S_HDMV/PGS
  335. Codec ID/Info                            : Picture based subtitle format used on BDs/HD-DVDs
  336. Duration                                 : 1 h 44 min
  337. Bit rate                                 : 35.2 kb/s
  338. Count of elements                        : 2644
  339. Stream size                              : 26.2 MiB (0%)
  340. Title                                    : Greek-PGS
  341. Language                                 : Greek
  342. Default                                  : No
  343. Forced                                   : No
  344. Original source medium                   : Blu-ray
  345. Text #17
  346. ID                                       : 21
  347. ID in the original source medium         : 4783 (0x12AF)
  348. Format                                   : PGS
  349. Muxing mode                              : zlib
  350. Codec ID                                 : S_HDMV/PGS
  351. Codec ID/Info                            : Picture based subtitle format used on BDs/HD-DVDs
  352. Duration                                 : 1 h 43 min
  353. Bit rate                                 : 32.2 kb/s
  354. Count of elements                        : 2958
  355. Stream size                              : 23.9 MiB (0%)
  356. Title                                    : Hindi-PGS
  357. Language                                 : Hindi
  358. Default                                  : No
  359. Forced                                   : No
  360. Original source medium                   : Blu-ray
  361. Text #18
  362. ID                                       : 22
  363. ID in the original source medium         : 4784 (0x12B0)
  364. Format                                   : PGS
  365. Muxing mode                              : zlib
  366. Codec ID                                 : S_HDMV/PGS
  367. Codec ID/Info                            : Picture based subtitle format used on BDs/HD-DVDs
  368. Duration                                 : 1 h 51 min
  369. Bit rate                                 : 36.9 kb/s
  370. Count of elements                        : 3076
  371. Stream size                              : 29.4 MiB (0%)
  372. Title                                    : Hungarian-PGS
  373. Language                                 : Hungarian
  374. Default                                  : No
  375. Forced                                   : No
  376. Original source medium                   : Blu-ray
  377. Text #19
  378. ID                                       : 23
  379. ID in the original source medium         : 4785 (0x12B1)
  380. Format                                   : PGS
  381. Muxing mode                              : zlib
  382. Codec ID                                 : S_HDMV/PGS
  383. Codec ID/Info                            : Picture based subtitle format used on BDs/HD-DVDs
  384. Duration                                 : 1 h 51 min
  385. Bit rate                                 : 38.3 kb/s
  386. Count of elements                        : 2992
  387. Stream size                              : 30.5 MiB (0%)
  388. Title                                    : Italian-PGS
  389. Language                                 : Italian
  390. Default                                  : No
  391. Forced                                   : No
  392. Original source medium                   : Blu-ray
  393. Text #20
  394. ID                                       : 24
  395. ID in the original source medium         : 4786 (0x12B2)
  396. Format                                   : PGS
  397. Muxing mode                              : zlib
  398. Codec ID                                 : S_HDMV/PGS
  399. Codec ID/Info                            : Picture based subtitle format used on BDs/HD-DVDs
  400. Duration                                 : 1 h 51 min
  401. Bit rate                                 : 18.1 kb/s
  402. Count of elements                        : 2622
  403. Stream size                              : 14.4 MiB (0%)
  404. Title                                    : Korean-PGS
  405. Language                                 : Korean
  406. Default                                  : No
  407. Forced                                   : No
  408. Original source medium                   : Blu-ray
  409. Text #21
  410. ID                                       : 25
  411. ID in the original source medium         : 4787 (0x12B3)
  412. Format                                   : PGS
  413. Muxing mode                              : zlib
  414. Codec ID                                 : S_HDMV/PGS
  415. Codec ID/Info                            : Picture based subtitle format used on BDs/HD-DVDs
  416. Duration                                 : 1 h 43 min
  417. Bit rate                                 : 35.9 kb/s
  418. Count of elements                        : 2699
  419. Stream size                              : 26.6 MiB (0%)
  420. Title                                    : Lithuanian-PGS
  421. Language                                 : Lithuanian
  422. Default                                  : No
  423. Forced                                   : No
  424. Original source medium                   : Blu-ray
  425. Text #22
  426. ID                                       : 26
  427. ID in the original source medium         : 4788 (0x12B4)
  428. Format                                   : PGS
  429. Muxing mode                              : zlib
  430. Codec ID                                 : S_HDMV/PGS
  431. Codec ID/Info                            : Picture based subtitle format used on BDs/HD-DVDs
  432. Duration                                 : 1 h 51 min
  433. Bit rate                                 : 29.6 kb/s
  434. Count of elements                        : 2304
  435. Stream size                              : 23.6 MiB (0%)
  436. Title                                    : Norwegian-PGS
  437. Language                                 : Norwegian
  438. Default                                  : No
  439. Forced                                   : No
  440. Original source medium                   : Blu-ray
  441. Text #23
  442. ID                                       : 27
  443. ID in the original source medium         : 4789 (0x12B5)
  444. Format                                   : PGS
  445. Muxing mode                              : zlib
  446. Codec ID                                 : S_HDMV/PGS
  447. Codec ID/Info                            : Picture based subtitle format used on BDs/HD-DVDs
  448. Duration                                 : 1 h 51 min
  449. Bit rate                                 : 25.4 kb/s
  450. Count of elements                        : 2658
  451. Stream size                              : 20.2 MiB (0%)
  452. Title                                    : Portuguese-PGS
  453. Language                                 : Portuguese
  454. Default                                  : No
  455. Forced                                   : No
  456. Original source medium                   : Blu-ray
  457. Text #24
  458. ID                                       : 28
  459. ID in the original source medium         : 4790 (0x12B6)
  460. Format                                   : PGS
  461. Muxing mode                              : zlib
  462. Codec ID                                 : S_HDMV/PGS
  463. Codec ID/Info                            : Picture based subtitle format used on BDs/HD-DVDs
  464. Duration                                 : 1 h 51 min
  465. Bit rate                                 : 35.7 kb/s
  466. Count of elements                        : 2827
  467. Stream size                              : 28.5 MiB (0%)
  468. Title                                    : Portuguese-PGS
  469. Language                                 : Portuguese
  470. Default                                  : No
  471. Forced                                   : No
  472. Original source medium                   : Blu-ray
  473. Text #25
  474. ID                                       : 29
  475. ID in the original source medium         : 4791 (0x12B7)
  476. Format                                   : PGS
  477. Muxing mode                              : zlib
  478. Codec ID                                 : S_HDMV/PGS
  479. Codec ID/Info                            : Picture based subtitle format used on BDs/HD-DVDs
  480. Duration                                 : 1 h 51 min
  481. Bit rate                                 : 35.0 kb/s
  482. Count of elements                        : 3398
  483. Stream size                              : 27.9 MiB (0%)
  484. Title                                    : Romanian-PGS
  485. Language                                 : Romanian
  486. Default                                  : No
  487. Forced                                   : No
  488. Original source medium                   : Blu-ray
  489. Text #26
  490. ID                                       : 30
  491. ID in the original source medium         : 4792 (0x12B8)
  492. Format                                   : PGS
  493. Muxing mode                              : zlib
  494. Codec ID                                 : S_HDMV/PGS
  495. Codec ID/Info                            : Picture based subtitle format used on BDs/HD-DVDs
  496. Duration                                 : 1 h 51 min
  497. Bit rate                                 : 35.5 kb/s
  498. Count of elements                        : 3522
  499. Stream size                              : 28.3 MiB (0%)
  500. Title                                    : Russian-PGS
  501. Language                                 : Russian
  502. Default                                  : No
  503. Forced                                   : No
  504. Original source medium                   : Blu-ray
  505. Text #27
  506. ID                                       : 31
  507. ID in the original source medium         : 4793 (0x12B9)
  508. Format                                   : PGS
  509. Muxing mode                              : zlib
  510. Codec ID                                 : S_HDMV/PGS
  511. Codec ID/Info                            : Picture based subtitle format used on BDs/HD-DVDs
  512. Duration                                 : 1 h 51 min
  513. Bit rate                                 : 29.4 kb/s
  514. Count of elements                        : 2858
  515. Stream size                              : 23.4 MiB (0%)
  516. Title                                    : Spanish-PGS
  517. Language                                 : Spanish
  518. Default                                  : No
  519. Forced                                   : No
  520. Original source medium                   : Blu-ray
  521. Text #28
  522. ID                                       : 32
  523. ID in the original source medium         : 4794 (0x12BA)
  524. Format                                   : PGS
  525. Muxing mode                              : zlib
  526. Codec ID                                 : S_HDMV/PGS
  527. Codec ID/Info                            : Picture based subtitle format used on BDs/HD-DVDs
  528. Duration                                 : 1 h 51 min
  529. Bit rate                                 : 33.8 kb/s
  530. Count of elements                        : 2954
  531. Stream size                              : 26.9 MiB (0%)
  532. Title                                    : Spanish-PGS
  533. Language                                 : Spanish
  534. Default                                  : No
  535. Forced                                   : No
  536. Original source medium                   : Blu-ray
  537. Text #29
  538. ID                                       : 33
  539. ID in the original source medium         : 4795 (0x12BB)
  540. Format                                   : PGS
  541. Muxing mode                              : zlib
  542. Codec ID                                 : S_HDMV/PGS
  543. Codec ID/Info                            : Picture based subtitle format used on BDs/HD-DVDs
  544. Duration                                 : 1 h 51 min
  545. Bit rate                                 : 34.2 kb/s
  546. Count of elements                        : 3014
  547. Stream size                              : 27.3 MiB (0%)
  548. Title                                    : Sewdish-PGS
  549. Language                                 : Swedish
  550. Default                                  : No
  551. Forced                                   : No
  552. Original source medium                   : Blu-ray
  553. Text #30
  554. ID                                       : 34
  555. ID in the original source medium         : 4796 (0x12BC)
  556. Format                                   : PGS
  557. Muxing mode                              : zlib
  558. Codec ID                                 : S_HDMV/PGS
  559. Codec ID/Info                            : Picture based subtitle format used on BDs/HD-DVDs
  560. Duration                                 : 1 h 51 min
  561. Bit rate                                 : 37.6 kb/s
  562. Count of elements                        : 3385
  563. Stream size                              : 30.0 MiB (0%)
  564. Title                                    : Thai-PGS
  565. Language                                 : Thai
  566. Default                                  : No
  567. Forced                                   : No
  568. Original source medium                   : Blu-ray
  569. Text #31
  570. ID                                       : 35
  571. ID in the original source medium         : 4797 (0x12BD)
  572. Format                                   : PGS
  573. Muxing mode                              : zlib
  574. Codec ID                                 : S_HDMV/PGS
  575. Codec ID/Info                            : Picture based subtitle format used on BDs/HD-DVDs
  576. Duration                                 : 1 h 51 min
  577. Bit rate                                 : 35.1 kb/s
  578. Count of elements                        : 2954
  579. Stream size                              : 28.0 MiB (0%)
  580. Title                                    : Turkish-PGS
  581. Language                                 : Turkish
  582. Default                                  : No
  583. Forced                                   : No
  584. Original source medium                   : Blu-ray
  585. Text #32
  586. ID                                       : 36
  587. ID in the original source medium         : 4798 (0x12BE)
  588. Format                                   : PGS
  589. Muxing mode                              : zlib
  590. Codec ID                                 : S_HDMV/PGS
  591. Codec ID/Info                            : Picture based subtitle format used on BDs/HD-DVDs
  592. Duration                                 : 1 h 51 min
  593. Bit rate                                 : 38.6 kb/s
  594. Count of elements                        : 3492
  595. Stream size                              : 30.8 MiB (0%)
  596. Title                                    : Ukrainian-PGS
  597. Language                                 : Ukrainian
  598. Default                                  : No
  599. Forced                                   : No
  600. Original source medium                   : Blu-ray
  601. Menu
  602. 00:00:00.000                             : en:Chapter 01
  603. 00:06:22.340                             : en:Chapter 02
  604. 00:13:25.095                             : en:Chapter 03
  605. 00:20:33.065                             : en:Chapter 04
  606. 00:27:08.752                             : en:Chapter 05
  607. 00:34:13.718                             : en:Chapter 06
  608. 00:41:57.932                             : en:Chapter 07
  609. 00:47:01.944                             : en:Chapter 08
  610. 00:54:07.953                             : en:Chapter 09
  611. 01:00:00.597                             : en:Chapter 10
  612. 01:08:25.601                             : en:Chapter 11
  613. 01:13:37.538                             : en:Chapter 12
  614. 01:21:01.857                             : en:Chapter 13
  615. 01:26:40.361                             : en:Chapter 14
  616. 01:33:41.324                             : en:Chapter 15
  617. 01:38:44.293                             : en:Chapter 16
复制代码





                                       
                                       

                                       
                                       
                                       




回复

使用道具 举报

懒得打字嘛,点击右侧快捷回复 【右侧内容,后台自定义】
您需要登录后才可以回帖 登录 | 立即加入

本版积分规则

Archiver|小黑屋| 蓝光电影网 |网站地图

Copyright © 2021 Comsenz Inc. Powered by 蓝光电影网

蓝光电影网

本站内容由用户自主分享和转载自互联网,转载目的在于传递更多信息,并不代表本网赞同其观点和对其真实性负责。

如有侵权、违反国家法律政策行为,请联系我们,我们会第一时间及时清除和处理!

举报反馈邮箱:[email protected]

快速回复 返回顶部 返回列表