找回密码

蓝光电影网

查看: 1476|回复: 0

[UHD.HEVC] 寻龙传说/寻龙使者:拉雅 Raya.and.the.Last.Dragon.2021.2160p.BluRay.REMUX.HEVC.DTS-HD.MA.TrueHD.Atmos.7.1-FGT 53.40GB

[复制链接]
蓝光币
1084
发表于 2021-5-16 09:47:31 | 显示全部楼层 |阅读模式
[img][/img]

◎译  名 寻龙传闻/寻龙使者:拉雅(台)/拉雅和最初的龙/瑞亚和最初一条龙/魔龙王国(港)
◎片  名 Raya and The Last Dragon
◎年  代 2021
◎产  地 美国
◎类  别 动画 / 奇异 / 冒险
◎语  言 英语
◎上映日期 2021-03-05(中国大陆/美国)
◎豆瓣评分 7.2/10 from 77592 users
◎豆瓣链接 https://movie.douban.com/subject/34804147/
◎片  长 108分钟
◎导  演 唐·霍尔 Don Hall / 卡洛斯·洛佩斯·埃斯特拉达 Carlos López Estrada / 保罗·布里格斯 Paul Briggs / 约翰·瑞帕 John Ripa
◎编  剧 阮基 Qui Nguyen / 阿黛勒·林 Adele Lim / 保罗·布里格斯 Paul Briggs / 唐·霍尔 Don Hall / 卡洛斯·洛佩斯·埃斯特拉达 Carlos López Estrada / 基尔·默里 Kiel Murray / 约翰·瑞帕 John Ripa / 迪恩·威林斯 Dean Wellins
◎主  演 凯莉·玛丽·陈 Kelly Marie Tran
       奥卡菲娜 Awkwafina
       嘉玛·陈 Gemma Chan
       金大贤 Daniel Dae Kim
       吴珊卓 Sandra Oh
       本尼迪克特·王 Benedict Wong
       伊扎克·王 Izaac Wang
       塔莉娅·陈 Thalia Tran
       艾伦·图代克 Alan Tudyk
       迪辰·拉克曼 Dichen Lachman
       帕蒂·哈里森 Patti Harrison
       姜成镐 Sung Kang
       罗斯·巴特勒 Ross Butler
       乔娜·肖 Jona Xiao
       宋静秀 Lucille Soong
       弗朗克西斯·周 Fran?ois Chau
       保罗·扬 Paul Yen
       丽莎·德尔·门多 Liza Del Mundo
       塔妮亚·古纳迪 Tania Gunadi
       珍妮·关 Jennie Kwan
       卢锡安·佩雷兹 Lucian Perez
       文森特·罗德里格兹三世 Vincent Rodriguez III
       JB Tadena
       赵丽颖 Liying Zhao
◎标  签 迪士尼 | 动画 | 奇异 | 冒险 | 美国 | 长大 | 女性 | 2021
◎简  介


  很久之前,在布满奇异色彩的龙佑之邦,人类和龙和谐地生活在一路。但当一股邪恶的气力袭来,龙牺牲了自己来拯救人类。500年后,一样的邪恶气力东山复兴,只要一个孤独的战士拉雅(凯莉·玛丽·陈 配音)承当重任,追踪传闻中的最初一条龙,以修复这块破裂的地盘,团结割裂的群众。在她的旅程中,她也会逐步领会到拯救天下不但仅需要一条龙,还需要信赖和团队合作。
  1. Video
  2. ID                                       : 1
  3. ID in the original source medium         : 4113 (0x1011)
  4. Format                                   : HEVC
  5. Format/Info                              : High Efficiency Video Coding
  6. Format profile                           : Main [email protected]@High
  7. HDR format                               : SMPTE ST 2086, HDR10 compatible
  8. Codec ID                                 : V_MPEGH/ISO/HEVC
  9. Duration                                 : 1 h 47 min
  10. Bit rate                                 : 51.5 Mb/s
  11. Width                                    : 3 840 pixels
  12. Height                                   : 2 160 pixels
  13. Display aspect ratio                     : 16:9
  14. Frame rate mode                          : Constant
  15. Frame rate                               : 23.976 (24000/1001/189150) FPS
  16. Color space                              : YUV
  17. Chroma subsampling                       : 4:2:0 (Type 2)
  18. Bit depth                                : 10 bits
  19. Bits/(Pixel*Frame)                       : 0.259
  20. Stream size                              : 38.7 GiB (72%)
  21. Writing library                          : ATEME Titan File 3.9.6 (4.9.6.2)        
  22. Language                                 : English
  23. Default                                  : No
  24. Forced                                   : No
  25. Color range                              : Limited
  26. Color primaries                          : BT.2020
  27. Transfer characteristics                 : PQ
  28. Matrix coefficients                      : BT.2020 non-constant
  29. Mastering display color primaries        : Display P3
  30. Mastering display luminance              : min: 0.0050 cd/m2, max: 1000 cd/m2
  31. Original source medium                   : Blu-ray

  32. Audio #1
  33. ID                                       : 2
  34. ID in the original source medium         : 4352 (0x1100)
  35. Format                                   : MLP FBA 16-ch
  36. Format/Info                              : Meridian Lossless Packing FBA with 16-channel presentation
  37. Commercial name                          : Dolby TrueHD with Dolby Atmos
  38. Codec ID                                 : A_TRUEHD
  39. Duration                                 : 1 h 47 min
  40. Bit rate mode                            : Variable
  41. Bit rate                                 : 8 470 kb/s
  42. Maximum bit rate                         : 11.2 Mb/s
  43. Channel(s)                               : 8 channels
  44. Channel layout                           : L R C LFE Ls Rs Lb Rb
  45. Sampling rate                            : 48.0 kHz
  46. Frame rate                               : 1 200.000 FPS (40 SPF)
  47. Bit depth                                : 24 bits
  48. Compression mode                         : Lossless
  49. Stream size                              : 6.36 GiB (12%)
  50. Title                                    : TrueHD 7.1 Atmos
  51. Language                                 : English
  52. Default                                  : Yes
  53. Forced                                   : No
  54. Original source medium                   : Blu-ray
  55. Number of dynamic objects                : 13
  56. Bed channel count                        : 1 channel
  57. Bed channel configuration                : LFE

  58. Audio #2
  59. ID                                       : 3
  60. Format                                   : DTS XLL
  61. Format/Info                              : Digital Theater Systems
  62. Commercial name                          : DTS-HD Master Audio
  63. Codec ID                                 : A_DTS
  64. Duration                                 : 1 h 47 min
  65. Bit rate mode                            : Variable
  66. Bit rate                                 : 5 285 kb/s
  67. Channel(s)                               : 8 channels
  68. Channel layout                           : C L R LFE Lb Rb Lss Rss
  69. Sampling rate                            : 48.0 kHz
  70. Frame rate                               : 93.750 FPS (512 SPF)
  71. Bit depth                                : 24 bits
  72. Compression mode                         : Lossless
  73. Stream size                              : 3.97 GiB (7%)
  74. Title                                    : DTS-HD MA 7.1
  75. Language                                 : English
  76. Default                                  : No
  77. Forced                                   : No

  78. Audio #3
  79. ID                                       : 4
  80. ID in the original source medium         : 4352 (0x1100)
  81. Format                                   : AC-3
  82. Format/Info                              : Audio Coding 3
  83. Commercial name                          : Dolby Digital
  84. Codec ID                                 : A_AC3
  85. Duration                                 : 1 h 47 min
  86. Bit rate mode                            : Constant
  87. Bit rate                                 : 640 kb/s
  88. Channel(s)                               : 6 channels
  89. Channel layout                           : L R C LFE Ls Rs
  90. Sampling rate                            : 48.0 kHz
  91. Frame rate                               : 31.250 FPS (1536 SPF)
  92. Compression mode                         : Lossy
  93. Stream size                              : 492 MiB (1%)
  94. Title                                    : DD 5.1
  95. Language                                 : English
  96. Service kind                             : Complete Main
  97. Default                                  : No
  98. Forced                                   : No
  99. Original source medium                   : Blu-ray

  100. Audio #4
  101. ID                                       : 5
  102. ID in the original source medium         : 4353 (0x1101)
  103. Format                                   : AC-3
  104. Format/Info                              : Audio Coding 3
  105. Commercial name                          : Dolby Digital
  106. Codec ID                                 : A_AC3
  107. Duration                                 : 1 h 47 min
  108. Bit rate mode                            : Constant
  109. Bit rate                                 : 320 kb/s
  110. Channel(s)                               : 2 channels
  111. Channel layout                           : L R
  112. Sampling rate                            : 48.0 kHz
  113. Frame rate                               : 31.250 FPS (1536 SPF)
  114. Compression mode                         : Lossy
  115. Stream size                              : 246 MiB (0%)
  116. Title                                    : DD 2.0
  117. Language                                 : English
  118. Service kind                             : Complete Main
  119. Default                                  : No
  120. Forced                                   : No
  121. Original source medium                   : Blu-ray

  122. Audio #5
  123. ID                                       : 6
  124. Format                                   : E-AC-3
  125. Format/Info                              : Enhanced AC-3
  126. Commercial name                          : Dolby Digital Plus
  127. Format profile                           : Blu-ray Disc
  128. Codec ID                                 : A_EAC3
  129. Duration                                 : 1 h 47 min
  130. Bit rate mode                            : Constant
  131. Bit rate                                 : 1 024 kb/s
  132. Channel(s)                               : 8 channels
  133. Channel layout                           : L R C LFE Ls Rs Lb Rb
  134. Sampling rate                            : 48.0 kHz
  135. Frame rate                               : 31.250 FPS (1536 SPF)
  136. Compression mode                         : Lossy
  137. Stream size                              : 787 MiB (1%)
  138. Title                                    : DDP 7.1
  139. Language                                 : French
  140. Service kind                             : Complete Main
  141. Default                                  : No
  142. Forced                                   : No

  143. Audio #6
  144. ID                                       : 7
  145. ID in the original source medium         : 4354 (0x1102)
  146. Format                                   : AC-3
  147. Format/Info                              : Audio Coding 3
  148. Commercial name                          : Dolby Digital
  149. Codec ID                                 : A_AC3
  150. Duration                                 : 1 h 47 min
  151. Bit rate mode                            : Constant
  152. Bit rate                                 : 576 kb/s
  153. Channel(s)                               : 6 channels
  154. Channel layout                           : L R C LFE Ls Rs
  155. Sampling rate                            : 48.0 kHz
  156. Frame rate                               : 31.250 FPS (1536 SPF)
  157. Compression mode                         : Lossy
  158. Stream size                              : 443 MiB (1%)
  159. Title                                    : DD 5.1
  160. Language                                 : French
  161. Service kind                             : Complete Main
  162. Default                                  : No
  163. Forced                                   : No
  164. Original source medium                   : Blu-ray

  165. Audio #7
  166. ID                                       : 8
  167. Format                                   : E-AC-3
  168. Format/Info                              : Enhanced AC-3
  169. Commercial name                          : Dolby Digital Plus
  170. Format profile                           : Blu-ray Disc
  171. Codec ID                                 : A_EAC3
  172. Duration                                 : 1 h 47 min
  173. Bit rate mode                            : Constant
  174. Bit rate                                 : 1 024 kb/s
  175. Channel(s)                               : 8 channels
  176. Channel layout                           : L R C LFE Ls Rs Lb Rb
  177. Sampling rate                            : 48.0 kHz
  178. Frame rate                               : 31.250 FPS (1536 SPF)
  179. Compression mode                         : Lossy
  180. Stream size                              : 787 MiB (1%)
  181. Title                                    : DDP 7.1
  182. Language                                 : Spanish
  183. Service kind                             : Complete Main
  184. Default                                  : No
  185. Forced                                   : No

  186. Audio #8
  187. ID                                       : 9
  188. ID in the original source medium         : 4355 (0x1103)
  189. Format                                   : AC-3
  190. Format/Info                              : Audio Coding 3
  191. Commercial name                          : Dolby Digital
  192. Codec ID                                 : A_AC3
  193. Duration                                 : 1 h 47 min
  194. Bit rate mode                            : Constant
  195. Bit rate                                 : 576 kb/s
  196. Channel(s)                               : 6 channels
  197. Channel layout                           : L R C LFE Ls Rs
  198. Sampling rate                            : 48.0 kHz
  199. Frame rate                               : 31.250 FPS (1536 SPF)
  200. Compression mode                         : Lossy
  201. Stream size                              : 443 MiB (1%)
  202. Title                                    : DD 5.1
  203. Language                                 : Spanish
  204. Service kind                             : Complete Main
  205. Default                                  : No
  206. Forced                                   : No
  207. Original source medium                   : Blu-ray

  208. Audio #9
  209. ID                                       : 10
  210. Format                                   : E-AC-3
  211. Format/Info                              : Enhanced AC-3
  212. Commercial name                          : Dolby Digital Plus
  213. Format profile                           : Blu-ray Disc
  214. Codec ID                                 : A_EAC3
  215. Duration                                 : 1 h 47 min
  216. Bit rate mode                            : Constant
  217. Bit rate                                 : 1 024 kb/s
  218. Channel(s)                               : 8 channels
  219. Channel layout                           : L R C LFE Ls Rs Lb Rb
  220. Sampling rate                            : 48.0 kHz
  221. Frame rate                               : 31.250 FPS (1536 SPF)
  222. Compression mode                         : Lossy
  223. Stream size                              : 787 MiB (1%)
  224. Title                                    : DDP 7.1
  225. Language                                 : Japanese
  226. Service kind                             : Complete Main
  227. Default                                  : No
  228. Forced                                   : No

  229. Audio #10
  230. ID                                       : 11
  231. ID in the original source medium         : 4356 (0x1104)
  232. Format                                   : AC-3
  233. Format/Info                              : Audio Coding 3
  234. Commercial name                          : Dolby Digital
  235. Codec ID                                 : A_AC3
  236. Duration                                 : 1 h 47 min
  237. Bit rate mode                            : Constant
  238. Bit rate                                 : 576 kb/s
  239. Channel(s)                               : 6 channels
  240. Channel layout                           : L R C LFE Ls Rs
  241. Sampling rate                            : 48.0 kHz
  242. Frame rate                               : 31.250 FPS (1536 SPF)
  243. Compression mode                         : Lossy
  244. Stream size                              : 443 MiB (1%)
  245. Title                                    : DD 5.1
  246. Language                                 : Japanese
  247. Service kind                             : Complete Main
  248. Default                                  : No
  249. Forced                                   : No
  250. Original source medium                   : Blu-ray

  251. Text #1
  252. ID                                       : 12
  253. Format                                   : UTF-8
  254. Codec ID                                 : S_TEXT/UTF8
  255. Codec ID/Info                            : UTF-8 Plain Text
  256. Duration                                 : 1 h 37 min
  257. Bit rate                                 : 51 b/s
  258. Count of elements                        : 1360
  259. Stream size                              : 37.1 KiB (0%)
  260. Title                                    : English-SRT
  261. Language                                 : English
  262. Default                                  : Yes
  263. Forced                                   : No

  264. Text #2
  265. ID                                       : 13
  266. ID in the original source medium         : 4768 (0x12A0)
  267. Format                                   : PGS
  268. Muxing mode                              : zlib
  269. Codec ID                                 : S_HDMV/PGS
  270. Codec ID/Info                            : Picture based subtitle format used on BDs/HD-DVDs
  271. Duration                                 : 1 h 46 min
  272. Bit rate                                 : 44.3 kb/s
  273. Count of elements                        : 3839
  274. Stream size                              : 33.7 MiB (0%)
  275. Title                                    : English-PGS
  276. Language                                 : English
  277. Default                                  : No
  278. Forced                                   : No
  279. Original source medium                   : Blu-ray

  280. Text #3
  281. ID                                       : 14
  282. ID in the original source medium         : 4769 (0x12A1)
  283. Format                                   : PGS
  284. Muxing mode                              : zlib
  285. Codec ID                                 : S_HDMV/PGS
  286. Codec ID/Info                            : Picture based subtitle format used on BDs/HD-DVDs
  287. Duration                                 : 1 h 45 min
  288. Bit rate                                 : 26.7 kb/s
  289. Count of elements                        : 2315
  290. Stream size                              : 20.2 MiB (0%)
  291. Title                                    : French-PGS
  292. Language                                 : French
  293. Default                                  : No
  294. Forced                                   : No
  295. Original source medium                   : Blu-ray

  296. Text #4
  297. ID                                       : 15
  298. ID in the original source medium         : 4770 (0x12A2)
  299. Format                                   : PGS
  300. Muxing mode                              : zlib
  301. Codec ID                                 : S_HDMV/PGS
  302. Codec ID/Info                            : Picture based subtitle format used on BDs/HD-DVDs
  303. Duration                                 : 1 h 45 min
  304. Bit rate                                 : 28.5 kb/s
  305. Count of elements                        : 2322
  306. Stream size                              : 21.6 MiB (0%)
  307. Title                                    : Spanish-PGS
  308. Language                                 : Spanish
  309. Default                                  : No
  310. Forced                                   : No
  311. Original source medium                   : Blu-ray

  312. Text #5
  313. ID                                       : 16
  314. ID in the original source medium         : 4771 (0x12A3)
  315. Format                                   : PGS
  316. Muxing mode                              : zlib
  317. Codec ID                                 : S_HDMV/PGS
  318. Codec ID/Info                            : Picture based subtitle format used on BDs/HD-DVDs
  319. Duration                                 : 1 h 45 min
  320. Bit rate                                 : 22.6 kb/s
  321. Count of elements                        : 2208
  322. Stream size                              : 17.1 MiB (0%)
  323. Title                                    : Japanese-PGS
  324. Language                                 : Japanese
  325. Default                                  : No
  326. Forced                                   : No
  327. Original source medium                   : Blu-ray

  328. Text #6
  329. ID                                       : 17
  330. ID in the original source medium         : 4772 (0x12A4)
  331. Format                                   : PGS
  332. Muxing mode                              : zlib
  333. Codec ID                                 : S_HDMV/PGS
  334. Codec ID/Info                            : Picture based subtitle format used on BDs/HD-DVDs
  335. Duration                                 : 1 h 46 min
  336. Bit rate                                 : 1 069 b/s
  337. Count of elements                        : 88
  338. Stream size                              : 837 KiB (0%)
  339. Title                                    : French-FORCED-PGS
  340. Language                                 : French
  341. Default                                  : No
  342. Forced                                   : No
  343. Original source medium                   : Blu-ray

  344. Text #7
  345. ID                                       : 18
  346. ID in the original source medium         : 4773 (0x12A5)
  347. Format                                   : PGS
  348. Muxing mode                              : zlib
  349. Codec ID                                 : S_HDMV/PGS
  350. Codec ID/Info                            : Picture based subtitle format used on BDs/HD-DVDs
  351. Duration                                 : 1 h 46 min
  352. Bit rate                                 : 1 198 b/s
  353. Count of elements                        : 108
  354. Stream size                              : 938 KiB (0%)
  355. Title                                    : Japanese-FORCED-PGS
  356. Language                                 : Japanese
  357. Default                                  : No
  358. Forced                                   : No
  359. Original source medium                   : Blu-ray

  360. Menu
  361. 00:00:00.000                             : Chapter 01
  362. 00:08:08.696                             : Chapter 02
  363. 00:11:00.159                             : Chapter 03
  364. 00:15:16.415                             : Chapter 04
  365. 00:20:15.255                             : Chapter 05
  366. 00:28:28.498                             : Chapter 06
  367. 00:35:56.904                             : Chapter 07
  368. 00:37:43.261                             : Chapter 08
  369. 00:41:12.595                             : Chapter 09
  370. 00:43:19.388                             : Chapter 10
  371. 00:48:56.224                             : Chapter 11
  372. 00:51:31.505                             : Chapter 12
  373. 00:53:13.398                             : Chapter 13
  374. 00:55:20.817                             : Chapter 14
  375. 00:59:07.669                             : Chapter 15
  376. 01:01:57.213                             : Chapter 16
  377. 01:04:34.412                             : Chapter 17
  378. 01:06:47.211                             : Chapter 18
  379. 01:11:21.610                             : Chapter 19
  380. 01:15:50.921                             : Chapter 20
  381. 01:18:41.007                             : Chapter 21
  382. 01:28:26.050                             : Chapter 22
  383. 01:35:08.285                             : Chapter 23
复制代码




                                       
                                       

                                       
                                       
                                       




寻龙传闻/寻龙使者:拉雅 Raya.and.the.Last.Dragon.2021.2160p.BluRay.REMUX.HEVC.DTS-HD.MA.TrueHD.Atmos.7.1-FGT 53.40GB

Raya.and.the.Last.Dragon.2021.2160p.BluRay.REMUX.HEVC.DTS-HD.MA.TrueHD.Atmos.7.1.torrent

134.2 KB, 下载次数: 12, 下载积分: 蓝光币 -2

回复

使用道具 举报

懒得打字嘛,点击右侧快捷回复 【右侧内容,后台自定义】
您需要登录后才可以回帖 登录 | 立即加入

本版积分规则

Archiver|小黑屋| 蓝光电影网 |网站地图

Copyright © 2021 Comsenz Inc. Powered by 蓝光电影网

蓝光电影网

本站内容由用户自主分享和转载自互联网,转载目的在于传递更多信息,并不代表本网赞同其观点和对其真实性负责。

如有侵权、违反国家法律政策行为,请联系我们,我们会第一时间及时清除和处理!

举报反馈邮箱:[email protected]

快速回复 返回顶部 返回列表