找回密码

蓝光电影网

查看: 168|回复: 0

[UHD.HEVC] 幻影英雄/最后的动作英雄 Last.Action.Hero.1993.2160p.BluRay.REMUX.HEVC.DTS-HD.MA.TrueHD.7.1.Atmos-FGT 74.54GB

[复制链接]
蓝光币
1082
发表于 2021-5-14 23:03:52 | 显示全部楼层 |阅读模式


◎译  名 幻影豪杰/最初的行动豪杰/最初的打架豪杰/最初魔鬼豪杰(台)
◎片  名 Last Action Hero
◎年  代 1993
◎产  地 美国
◎类  别 笑剧 / 行动 / 奇异 / 冒险
◎语  言 英语
◎上映日期 1993-06-18
◎豆瓣评分 7.6/10 from 7223 users
◎豆瓣链接 https://movie.douban.com/subject/1300343/
◎片  长 130 分钟
◎导  演 约翰·麦克蒂尔南 John McTiernan
◎编  剧 沙恩·布莱克 Shane Black / David Arnott / 扎克·佩恩 Zak Penn / Adam Leff / 戴维阿诺特 David Arnott
◎主  演 阿诺·施瓦辛格 Arnold Schwarzenegger
       F·默里·亚伯拉罕 F. Murray Abraham
       阿特·卡尼 Art Carney
       查尔斯·丹斯 Charles Dance
       弗兰克·麦克雷 Frank McRae
       汤姆·诺南 Tom Noonan
       罗伯特·普罗斯基 Robert Prosky
       安东尼·奎恩 Anthony Quinn
       梅塞迪丝·鲁尔 Mercedes Ruehl
       奥斯汀·奥布莱恩 Austin O'Brien
       伊恩·麦克莱恩 Ian McKellen
       Professor Toru Tanaka
       琼·普莱怀特 Joan Plowright
       Keith Barish
       凯伦·达菲 Karen Duffy
       迈克尔·V·格佐 Michael V. Gazzo
       丹尼·德维托 Danny DeVito
       莉扎·吉邦斯 Leeza Gibbons
       詹姆斯·贝鲁什 James Belushi
       达蒙·韦恩斯 Damon Wayans
       小理查德 Little Richard
       尚格·云顿 Jean-Claude Van Damme
       玛利亚·施莱沃 Maria Shriver
       Chris Connelly
       M.C. Hammer
       波斯·怀特 Persia White
       拉里·弗格森 Larry Ferguson
       Ryan Todd
       Peter Kent
       马文·范·皮伯斯 Melvin Van Peebles
       考林·加普 Colleen Camp
       安娜纳瓦罗 Anna Navarro
       蒂娜·特纳 Tina Turner
       Dagmar Koller
       Henry Kingi
       里克·杜科蒙 Rick Ducommun
       Neriah Davis
       R.C. Bates
       Bobbie Brown
       罗伯特·帕特里克 Robert Patrick
       安吉·艾佛哈特 Angie Everhart
       小托马斯·罗萨莱斯 Thomas Rosales Jr.
       迈克·马斯喀特 Mike Muscat
       Billy D. Lucas
       切维·切斯 Chevy Chase
       布里吉特·威尔逊 Bridgette Wilson-Sampras
       Anthony Peck
       史文-欧尔·托尔森 Sven-Ole Thorsen
       莎朗·斯通 Sharon Stone
       诺亚·艾默里奇 Noah Emmerich
       Jason Menz
       Bryan Hanna
       Michael Straka
       Symba Smith
       李·雷赫曼 Lee Reherman
◎标  签 行动 | 美国 | 科幻 | 施瓦辛格 | 笑剧 | 1993 | 美国电影 | 阿诺德·施瓦辛格
◎简  介


  杰克系列电影是由施瓦辛格主演的系列电影。在这电影中,施瓦辛格饰演的杰克(阿诺?施瓦辛格 Arnold Schwarzenegger 饰)总是天下的救世主,每当他的老对头班尼迪(查里斯?丹斯 Charles Dance 饰)出来作恶时,杰克总是能实时赶到,讲班尼迪打得屁滚尿流。小男孩丹尼是杰克系列电影的忠厚影迷,杰克系列电影的前三集他都能滚瓜烂熟。此日他的好朋友,电影放映员尼克给了丹尼一张奇异的电影,丹尼凭着这张电影票进入到了还未上演的杰克系列第四集合。
  
  不意班尼迪抢走了丹尼的电影票,从电影中来到了现实中。他的方针就是撤除杰克的饰演者施瓦辛格,这样在电影天下里就不再有人可以阻止他的邪恶计划。
  1. Video
  2. ID                                       : 1
  3. ID in the original source medium         : 4113 (0x1011)
  4. Format                                   : HEVC
  5. Format/Info                              : High Efficiency Video Coding
  6. Format profile                           : Main [email protected]@High
  7. HDR format                               : SMPTE ST 2086, HDR10 compatible
  8. Codec ID                                 : V_MPEGH/ISO/HEVC
  9. Duration                                 : 2 h 10 min
  10. Bit rate                                 : 58.9 Mb/s
  11. Width                                    : 3 840 pixels
  12. Height                                   : 2 160 pixels
  13. Display aspect ratio                     : 16:9
  14. Frame rate mode                          : Constant
  15. Frame rate                               : 23.976 (24000/1001/189150) FPS
  16. Color space                              : YUV
  17. Chroma subsampling                       : 4:2:0 (Type 2)
  18. Bit depth                                : 10 bits
  19. Bits/(Pixel*Frame)                       : 0.296
  20. Stream size                              : 53.9 GiB (72%)
  21. Language                                 : English
  22. Default                                  : No
  23. Forced                                   : No
  24. Color range                              : Limited
  25. Color primaries                          : BT.2020
  26. Transfer characteristics                 : PQ
  27. Matrix coefficients                      : BT.2020 non-constant
  28. Mastering display color primaries        : Display P3
  29. Mastering display luminance              : min: 0.0050 cd/m2, max: 4000 cd/m2
  30. Maximum Content Light Level              : 3991 cd/m2
  31. Maximum Frame-Average Light Level        : 1352 cd/m2
  32. Original source medium                   : Blu-ray
  33. Audio #1
  34. ID                                       : 2
  35. ID in the original source medium         : 4352 (0x1100)
  36. Format                                   : MLP FBA 16-ch
  37. Format/Info                              : Meridian Lossless Packing FBA with 16-channel presentation
  38. Commercial name                          : Dolby TrueHD with Dolby Atmos
  39. Codec ID                                 : A_TRUEHD
  40. Duration                                 : 2 h 10 min
  41. Bit rate mode                            : Variable
  42. Bit rate                                 : 4 657 kb/s
  43. Maximum bit rate                         : 8 667 kb/s
  44. Channel(s)                               : 8 channels
  45. Channel layout                           : L R C LFE Ls Rs Lb Rb
  46. Sampling rate                            : 48.0 kHz
  47. Frame rate                               : 1 200.000 FPS (40 SPF)
  48. Bit depth                                : 24 bits
  49. Compression mode                         : Lossless
  50. Stream size                              : 4.26 GiB (6%)
  51. Title                                    : TrueHD 7.1 Atmos
  52. Language                                 : English
  53. Default                                  : Yes
  54. Forced                                   : No
  55. Original source medium                   : Blu-ray
  56. Number of dynamic objects                : 11
  57. Bed channel count                        : 1 channel
  58. Bed channel configuration                : LFE
  59. Audio #2
  60. ID                                       : 3
  61. Format                                   : DTS XLL
  62. Format/Info                              : Digital Theater Systems
  63. Commercial name                          : DTS-HD Master Audio
  64. Codec ID                                 : A_DTS
  65. Duration                                 : 2 h 10 min
  66. Bit rate mode                            : Variable
  67. Bit rate                                 : 4 336 kb/s
  68. Channel(s)                               : 8 channels
  69. Channel layout                           : C L R LFE Lb Rb Lss Rss
  70. Sampling rate                            : 48.0 kHz
  71. Frame rate                               : 93.750 FPS (512 SPF)
  72. Bit depth                                : 24 bits
  73. Compression mode                         : Lossless
  74. Stream size                              : 3.97 GiB (5%)
  75. Title                                    : DTS-HD MA 7.1
  76. Language                                 : English
  77. Default                                  : No
  78. Forced                                   : No
  79. Audio #3
  80. ID                                       : 4
  81. ID in the original source medium         : 4352 (0x1100)
  82. Format                                   : AC-3
  83. Format/Info                              : Audio Coding 3
  84. Commercial name                          : Dolby Digital
  85. Codec ID                                 : A_AC3
  86. Duration                                 : 2 h 10 min
  87. Bit rate mode                            : Constant
  88. Bit rate                                 : 640 kb/s
  89. Channel(s)                               : 6 channels
  90. Channel layout                           : L R C LFE Ls Rs
  91. Sampling rate                            : 48.0 kHz
  92. Frame rate                               : 31.250 FPS (1536 SPF)
  93. Compression mode                         : Lossy
  94. Stream size                              : 599 MiB (1%)
  95. Title                                    : DD 5.1
  96. Language                                 : English
  97. Service kind                             : Complete Main
  98. Default                                  : No
  99. Forced                                   : No
  100. Original source medium                   : Blu-ray
  101. Audio #4
  102. ID                                       : 5
  103. ID in the original source medium         : 4354 (0x1102)
  104. Format                                   : DTS XLL
  105. Format/Info                              : Digital Theater Systems
  106. Commercial name                          : DTS-HD Master Audio
  107. Codec ID                                 : A_DTS
  108. Duration                                 : 2 h 10 min
  109. Bit rate mode                            : Variable
  110. Bit rate                                 : 1 569 kb/s
  111. Channel(s)                               : 2 channels
  112. Sampling rate                            : 48.0 kHz
  113. Frame rate                               : 93.750 FPS (512 SPF)
  114. Bit depth                                : 16 bits
  115. Compression mode                         : Lossless
  116. Stream size                              : 1.44 GiB (2%)
  117. Title                                    : DTS-HD MA 2.0
  118. Language                                 : English
  119. Default                                  : No
  120. Forced                                   : No
  121. Original source medium                   : Blu-ray
  122. Audio #5
  123. ID                                       : 6
  124. ID in the original source medium         : 4355 (0x1103)
  125. Format                                   : AC-3
  126. Format/Info                              : Audio Coding 3
  127. Commercial name                          : Dolby Digital
  128. Codec ID                                 : A_AC3
  129. Duration                                 : 2 h 10 min
  130. Bit rate mode                            : Constant
  131. Bit rate                                 : 640 kb/s
  132. Channel(s)                               : 6 channels
  133. Channel layout                           : L R C LFE Ls Rs
  134. Sampling rate                            : 48.0 kHz
  135. Frame rate                               : 31.250 FPS (1536 SPF)
  136. Compression mode                         : Lossy
  137. Stream size                              : 599 MiB (1%)
  138. Title                                    : DD 5.1
  139. Language                                 : Czech
  140. Service kind                             : Complete Main
  141. Default                                  : No
  142. Forced                                   : No
  143. Original source medium                   : Blu-ray
  144. Audio #6
  145. ID                                       : 7
  146. ID in the original source medium         : 4356 (0x1104)
  147. Format                                   : DTS XLL
  148. Format/Info                              : Digital Theater Systems
  149. Commercial name                          : DTS-HD Master Audio
  150. Codec ID                                 : A_DTS
  151. Duration                                 : 2 h 10 min
  152. Bit rate mode                            : Variable
  153. Bit rate                                 : 2 301 kb/s
  154. Channel(s)                               : 6 channels
  155. Channel layout                           : C L R Ls Rs LFE
  156. Sampling rate                            : 48.0 kHz
  157. Frame rate                               : 93.750 FPS (512 SPF)
  158. Bit depth                                : 16 bits
  159. Compression mode                         : Lossless
  160. Stream size                              : 2.10 GiB (3%)
  161. Title                                    : DTS-HD MA 5.1
  162. Language                                 : French
  163. Default                                  : No
  164. Forced                                   : No
  165. Original source medium                   : Blu-ray
  166. Audio #7
  167. ID                                       : 8
  168. ID in the original source medium         : 4357 (0x1105)
  169. Format                                   : AC-3
  170. Format/Info                              : Audio Coding 3
  171. Commercial name                          : Dolby Digital
  172. Format settings                          : Dolby Surround
  173. Codec ID                                 : A_AC3
  174. Duration                                 : 2 h 10 min
  175. Bit rate mode                            : Constant
  176. Bit rate                                 : 192 kb/s
  177. Channel(s)                               : 2 channels
  178. Channel layout                           : L R
  179. Sampling rate                            : 48.0 kHz
  180. Frame rate                               : 31.250 FPS (1536 SPF)
  181. Compression mode                         : Lossy
  182. Stream size                              : 180 MiB (0%)
  183. Title                                    : DD 2.0
  184. Language                                 : French
  185. Service kind                             : Complete Main
  186. Default                                  : No
  187. Forced                                   : No
  188. Original source medium                   : Blu-ray
  189. Audio #8
  190. ID                                       : 9
  191. ID in the original source medium         : 4358 (0x1106)
  192. Format                                   : DTS XLL
  193. Format/Info                              : Digital Theater Systems
  194. Commercial name                          : DTS-HD Master Audio
  195. Codec ID                                 : A_DTS
  196. Duration                                 : 2 h 10 min
  197. Bit rate mode                            : Variable
  198. Bit rate                                 : 2 379 kb/s
  199. Channel(s)                               : 6 channels
  200. Channel layout                           : C L R Ls Rs LFE
  201. Sampling rate                            : 48.0 kHz
  202. Frame rate                               : 93.750 FPS (512 SPF)
  203. Bit depth                                : 16 bits
  204. Compression mode                         : Lossless
  205. Stream size                              : 2.18 GiB (3%)
  206. Title                                    : DTS-HD MA 5.1
  207. Language                                 : German
  208. Default                                  : No
  209. Forced                                   : No
  210. Original source medium                   : Blu-ray
  211. Audio #9
  212. ID                                       : 10
  213. ID in the original source medium         : 4359 (0x1107)
  214. Format                                   : AC-3
  215. Format/Info                              : Audio Coding 3
  216. Commercial name                          : Dolby Digital
  217. Codec ID                                 : A_AC3
  218. Duration                                 : 2 h 10 min
  219. Bit rate mode                            : Constant
  220. Bit rate                                 : 640 kb/s
  221. Channel(s)                               : 6 channels
  222. Channel layout                           : L R C LFE Ls Rs
  223. Sampling rate                            : 48.0 kHz
  224. Frame rate                               : 31.250 FPS (1536 SPF)
  225. Compression mode                         : Lossy
  226. Stream size                              : 599 MiB (1%)
  227. Title                                    : DD 5.1
  228. Language                                 : Hungarian
  229. Service kind                             : Complete Main
  230. Default                                  : No
  231. Forced                                   : No
  232. Original source medium                   : Blu-ray
  233. Audio #10
  234. ID                                       : 11
  235. ID in the original source medium         : 4360 (0x1108)
  236. Format                                   : AC-3
  237. Format/Info                              : Audio Coding 3
  238. Commercial name                          : Dolby Digital
  239. Codec ID                                 : A_AC3
  240. Duration                                 : 2 h 10 min
  241. Bit rate mode                            : Constant
  242. Bit rate                                 : 640 kb/s
  243. Channel(s)                               : 6 channels
  244. Channel layout                           : L R C LFE Ls Rs
  245. Sampling rate                            : 48.0 kHz
  246. Frame rate                               : 31.250 FPS (1536 SPF)
  247. Compression mode                         : Lossy
  248. Stream size                              : 599 MiB (1%)
  249. Title                                    : DD 5.1
  250. Language                                 : Italian
  251. Service kind                             : Complete Main
  252. Default                                  : No
  253. Forced                                   : No
  254. Original source medium                   : Blu-ray
  255. Audio #11
  256. ID                                       : 12
  257. ID in the original source medium         : 4361 (0x1109)
  258. Format                                   : AC-3
  259. Format/Info                              : Audio Coding 3
  260. Commercial name                          : Dolby Digital
  261. Codec ID                                 : A_AC3
  262. Duration                                 : 2 h 10 min
  263. Bit rate mode                            : Constant
  264. Bit rate                                 : 640 kb/s
  265. Channel(s)                               : 6 channels
  266. Channel layout                           : L R C LFE Ls Rs
  267. Sampling rate                            : 48.0 kHz
  268. Frame rate                               : 31.250 FPS (1536 SPF)
  269. Compression mode                         : Lossy
  270. Stream size                              : 599 MiB (1%)
  271. Title                                    : DD 5.1
  272. Language                                 : Polish
  273. Service kind                             : Complete Main
  274. Default                                  : No
  275. Forced                                   : No
  276. Original source medium                   : Blu-ray
  277. Audio #12
  278. ID                                       : 13
  279. ID in the original source medium         : 4362 (0x110A)
  280. Format                                   : DTS XLL
  281. Format/Info                              : Digital Theater Systems
  282. Commercial name                          : DTS-HD Master Audio
  283. Codec ID                                 : A_DTS
  284. Duration                                 : 2 h 10 min
  285. Bit rate mode                            : Variable
  286. Bit rate                                 : 2 386 kb/s
  287. Channel(s)                               : 6 channels
  288. Channel layout                           : C L R Ls Rs LFE
  289. Sampling rate                            : 48.0 kHz
  290. Frame rate                               : 93.750 FPS (512 SPF)
  291. Bit depth                                : 16 bits
  292. Compression mode                         : Lossless
  293. Stream size                              : 2.18 GiB (3%)
  294. Title                                    : DTS-HD MA 5.1
  295. Language                                 : Spanish
  296. Default                                  : No
  297. Forced                                   : No
  298. Original source medium                   : Blu-ray
  299. Audio #13
  300. ID                                       : 14
  301. ID in the original source medium         : 4363 (0x110B)
  302. Format                                   : AC-3
  303. Format/Info                              : Audio Coding 3
  304. Commercial name                          : Dolby Digital
  305. Codec ID                                 : A_AC3
  306. Duration                                 : 2 h 10 min
  307. Bit rate mode                            : Constant
  308. Bit rate                                 : 640 kb/s
  309. Channel(s)                               : 6 channels
  310. Channel layout                           : L R C LFE Ls Rs
  311. Sampling rate                            : 48.0 kHz
  312. Frame rate                               : 31.250 FPS (1536 SPF)
  313. Compression mode                         : Lossy
  314. Stream size                              : 599 MiB (1%)
  315. Title                                    : DD 5.1
  316. Language                                 : Spanish
  317. Service kind                             : Complete Main
  318. Default                                  : No
  319. Forced                                   : No
  320. Original source medium                   : Blu-ray
  321. Audio #14
  322. ID                                       : 15
  323. ID in the original source medium         : 4364 (0x110C)
  324. Format                                   : AC-3
  325. Format/Info                              : Audio Coding 3
  326. Commercial name                          : Dolby Digital
  327. Codec ID                                 : A_AC3
  328. Duration                                 : 2 h 10 min
  329. Bit rate mode                            : Constant
  330. Bit rate                                 : 192 kb/s
  331. Channel(s)                               : 2 channels
  332. Channel layout                           : L R
  333. Sampling rate                            : 48.0 kHz
  334. Frame rate                               : 31.250 FPS (1536 SPF)
  335. Compression mode                         : Lossy
  336. Stream size                              : 180 MiB (0%)
  337. Title                                    : DD 2.0
  338. Language                                 : Thai
  339. Service kind                             : Complete Main
  340. Default                                  : No
  341. Forced                                   : No
  342. Original source medium                   : Blu-ray
  343. Audio #15
  344. ID                                       : 16
  345. ID in the original source medium         : 4365 (0x110D)
  346. Format                                   : AC-3
  347. Format/Info                              : Audio Coding 3
  348. Commercial name                          : Dolby Digital
  349. Format settings                          : Dolby Surround
  350. Codec ID                                 : A_AC3
  351. Duration                                 : 2 h 10 min
  352. Bit rate mode                            : Constant
  353. Bit rate                                 : 192 kb/s
  354. Channel(s)                               : 2 channels
  355. Channel layout                           : L R
  356. Sampling rate                            : 48.0 kHz
  357. Frame rate                               : 31.250 FPS (1536 SPF)
  358. Compression mode                         : Lossy
  359. Stream size                              : 180 MiB (0%)
  360. Title                                    : DD 2.0
  361. Language                                 : English
  362. Service kind                             : Complete Main
  363. Default                                  : No
  364. Forced                                   : No
  365. Original source medium                   : Blu-ray
  366. Text #1
  367. ID                                       : 17
  368. Format                                   : UTF-8
  369. Codec ID                                 : S_TEXT/UTF8
  370. Codec ID/Info                            : UTF-8 Plain Text
  371. Duration                                 : 2 h 2 min
  372. Bit rate                                 : 57 b/s
  373. Count of elements                        : 1326
  374. Stream size                              : 51.7 KiB (0%)
  375. Title                                    : English-SRT
  376. Language                                 : English
  377. Default                                  : Yes
  378. Forced                                   : No
  379. Text #2
  380. ID                                       : 18
  381. ID in the original source medium         : 4768 (0x12A0)
  382. Format                                   : PGS
  383. Muxing mode                              : zlib
  384. Codec ID                                 : S_HDMV/PGS
  385. Codec ID/Info                            : Picture based subtitle format used on BDs/HD-DVDs
  386. Duration                                 : 2 h 10 min
  387. Bit rate                                 : 35.6 kb/s
  388. Count of elements                        : 3166
  389. Stream size                              : 33.2 MiB (0%)
  390. Title                                    : English-SDH-PGS
  391. Language                                 : English
  392. Default                                  : No
  393. Forced                                   : No
  394. Original source medium                   : Blu-ray
  395. Text #3
  396. ID                                       : 19
  397. ID in the original source medium         : 4769 (0x12A1)
  398. Format                                   : PGS
  399. Muxing mode                              : zlib
  400. Codec ID                                 : S_HDMV/PGS
  401. Codec ID/Info                            : Picture based subtitle format used on BDs/HD-DVDs
  402. Duration                                 : 2 h 2 min
  403. Bit rate                                 : 33.3 kb/s
  404. Count of elements                        : 2658
  405. Stream size                              : 29.2 MiB (0%)
  406. Title                                    : English-PGS
  407. Language                                 : English
  408. Default                                  : No
  409. Forced                                   : No
  410. Original source medium                   : Blu-ray
  411. Text #4
  412. ID                                       : 20
  413. ID in the original source medium         : 4770 (0x12A2)
  414. Format                                   : PGS
  415. Muxing mode                              : zlib
  416. Codec ID                                 : S_HDMV/PGS
  417. Codec ID/Info                            : Picture based subtitle format used on BDs/HD-DVDs
  418. Duration                                 : 2 h 10 min
  419. Bit rate                                 : 35.4 kb/s
  420. Count of elements                        : 3128
  421. Stream size                              : 33.0 MiB (0%)
  422. Title                                    : English-SDH-PGS
  423. Language                                 : English
  424. Default                                  : No
  425. Forced                                   : No
  426. Original source medium                   : Blu-ray
  427. Text #5
  428. ID                                       : 21
  429. ID in the original source medium         : 4771 (0x12A3)
  430. Format                                   : PGS
  431. Muxing mode                              : zlib
  432. Codec ID                                 : S_HDMV/PGS
  433. Codec ID/Info                            : Picture based subtitle format used on BDs/HD-DVDs
  434. Duration                                 : 2 h 2 min
  435. Bit rate                                 : 33.3 kb/s
  436. Count of elements                        : 2658
  437. Stream size                              : 29.2 MiB (0%)
  438. Title                                    : English-PGS
  439. Language                                 : English
  440. Default                                  : No
  441. Forced                                   : No
  442. Original source medium                   : Blu-ray
  443. Text #6
  444. ID                                       : 22
  445. ID in the original source medium         : 4772 (0x12A4)
  446. Format                                   : PGS
  447. Muxing mode                              : zlib
  448. Codec ID                                 : S_HDMV/PGS
  449. Codec ID/Info                            : Picture based subtitle format used on BDs/HD-DVDs
  450. Duration                                 : 2 h 2 min
  451. Bit rate                                 : 25.5 kb/s
  452. Count of elements                        : 2679
  453. Stream size                              : 22.3 MiB (0%)
  454. Title                                    : Chinese-PGS
  455. Language                                 : Chinese
  456. Default                                  : No
  457. Forced                                   : No
  458. Original source medium                   : Blu-ray
  459. Text #7
  460. ID                                       : 23
  461. ID in the original source medium         : 4773 (0x12A5)
  462. Format                                   : PGS
  463. Muxing mode                              : zlib
  464. Codec ID                                 : S_HDMV/PGS
  465. Codec ID/Info                            : Picture based subtitle format used on BDs/HD-DVDs
  466. Duration                                 : 2 h 2 min
  467. Bit rate                                 : 19.8 kb/s
  468. Count of elements                        : 2466
  469. Stream size                              : 17.3 MiB (0%)
  470. Title                                    : Chinese-PGS
  471. Language                                 : Chinese
  472. Default                                  : No
  473. Forced                                   : No
  474. Original source medium                   : Blu-ray
  475. Text #8
  476. ID                                       : 24
  477. ID in the original source medium         : 4774 (0x12A6)
  478. Format                                   : PGS
  479. Muxing mode                              : zlib
  480. Codec ID                                 : S_HDMV/PGS
  481. Codec ID/Info                            : Picture based subtitle format used on BDs/HD-DVDs
  482. Duration                                 : 2 h 2 min
  483. Bit rate                                 : 25.3 kb/s
  484. Count of elements                        : 1918
  485. Stream size                              : 22.2 MiB (0%)
  486. Title                                    : Czech-PGS
  487. Language                                 : Czech
  488. Default                                  : No
  489. Forced                                   : No
  490. Original source medium                   : Blu-ray
  491. Text #9
  492. ID                                       : 25
  493. ID in the original source medium         : 4774 (0x12A6)
  494. Format                                   : PGS
  495. Muxing mode                              : zlib
  496. Codec ID                                 : S_HDMV/PGS
  497. Codec ID/Info                            : Picture based subtitle format used on BDs/HD-DVDs
  498. Duration                                 : 9 min 19 s
  499. Bit rate                                 : 729 b/s
  500. Count of elements                        : 6
  501. Stream size                              : 49.8 KiB (0%)
  502. Title                                    : Czech-FORCED-PGS
  503. Language                                 : Czech
  504. Default                                  : No
  505. Forced                                   : No
  506. Original source medium                   : Blu-ray
  507. Text #10
  508. ID                                       : 26
  509. ID in the original source medium         : 4775 (0x12A7)
  510. Format                                   : PGS
  511. Muxing mode                              : zlib
  512. Codec ID                                 : S_HDMV/PGS
  513. Codec ID/Info                            : Picture based subtitle format used on BDs/HD-DVDs
  514. Duration                                 : 2 h 9 min
  515. Bit rate                                 : 24.3 kb/s
  516. Count of elements                        : 1952
  517. Stream size                              : 22.6 MiB (0%)
  518. Title                                    : Danish-PGS
  519. Language                                 : Danish
  520. Default                                  : No
  521. Forced                                   : No
  522. Original source medium                   : Blu-ray
  523. Text #11
  524. ID                                       : 27
  525. ID in the original source medium         : 4776 (0x12A8)
  526. Format                                   : PGS
  527. Muxing mode                              : zlib
  528. Codec ID                                 : S_HDMV/PGS
  529. Codec ID/Info                            : Picture based subtitle format used on BDs/HD-DVDs
  530. Duration                                 : 2 h 2 min
  531. Bit rate                                 : 24.3 kb/s
  532. Count of elements                        : 1938
  533. Stream size                              : 21.3 MiB (0%)
  534. Title                                    : Dutch-PGS
  535. Language                                 : Dutch
  536. Default                                  : No
  537. Forced                                   : No
  538. Original source medium                   : Blu-ray
  539. Text #12
  540. ID                                       : 28
  541. ID in the original source medium         : 4777 (0x12A9)
  542. Format                                   : PGS
  543. Muxing mode                              : zlib
  544. Codec ID                                 : S_HDMV/PGS
  545. Codec ID/Info                            : Picture based subtitle format used on BDs/HD-DVDs
  546. Duration                                 : 2 h 9 min
  547. Bit rate                                 : 22.7 kb/s
  548. Count of elements                        : 1964
  549. Stream size                              : 21.1 MiB (0%)
  550. Title                                    : Finnish-PGS
  551. Language                                 : Finnish
  552. Default                                  : No
  553. Forced                                   : No
  554. Original source medium                   : Blu-ray
  555. Text #13
  556. ID                                       : 29
  557. ID in the original source medium         : 4778 (0x12AA)
  558. Format                                   : PGS
  559. Muxing mode                              : zlib
  560. Codec ID                                 : S_HDMV/PGS
  561. Codec ID/Info                            : Picture based subtitle format used on BDs/HD-DVDs
  562. Duration                                 : 2 h 9 min
  563. Bit rate                                 : 25.3 kb/s
  564. Count of elements                        : 1968
  565. Stream size                              : 23.5 MiB (0%)
  566. Title                                    : French-PGS
  567. Language                                 : French
  568. Default                                  : No
  569. Forced                                   : No
  570. Original source medium                   : Blu-ray
  571. Text #14
  572. ID                                       : 30
  573. ID in the original source medium         : 4778 (0x12AA)
  574. Format                                   : PGS
  575. Muxing mode                              : zlib
  576. Codec ID                                 : S_HDMV/PGS
  577. Codec ID/Info                            : Picture based subtitle format used on BDs/HD-DVDs
  578. Duration                                 : 2 h 9 min
  579. Bit rate                                 : 94 b/s
  580. Count of elements                        : 14
  581. Stream size                              : 89.1 KiB (0%)
  582. Title                                    : French-FORCED-PGS
  583. Language                                 : French
  584. Default                                  : No
  585. Forced                                   : No
  586. Original source medium                   : Blu-ray
  587. Text #15
  588. ID                                       : 31
  589. ID in the original source medium         : 4779 (0x12AB)
  590. Format                                   : PGS
  591. Muxing mode                              : zlib
  592. Codec ID                                 : S_HDMV/PGS
  593. Codec ID/Info                            : Picture based subtitle format used on BDs/HD-DVDs
  594. Duration                                 : 2 h 2 min
  595. Bit rate                                 : 32.3 kb/s
  596. Count of elements                        : 1968
  597. Stream size                              : 28.3 MiB (0%)
  598. Title                                    : German-PGS
  599. Language                                 : German
  600. Default                                  : No
  601. Forced                                   : No
  602. Original source medium                   : Blu-ray
  603. Text #16
  604. ID                                       : 32
  605. ID in the original source medium         : 4779 (0x12AB)
  606. Format                                   : PGS
  607. Muxing mode                              : zlib
  608. Codec ID                                 : S_HDMV/PGS
  609. Codec ID/Info                            : Picture based subtitle format used on BDs/HD-DVDs
  610. Duration                                 : 9 min 19 s
  611. Bit rate                                 : 905 b/s
  612. Count of elements                        : 8
  613. Stream size                              : 61.8 KiB (0%)
  614. Title                                    : German-FORCED-PGS
  615. Language                                 : German
  616. Default                                  : No
  617. Forced                                   : No
  618. Original source medium                   : Blu-ray
  619. Text #17
  620. ID                                       : 33
  621. ID in the original source medium         : 4780 (0x12AC)
  622. Format                                   : PGS
  623. Muxing mode                              : zlib
  624. Codec ID                                 : S_HDMV/PGS
  625. Codec ID/Info                            : Picture based subtitle format used on BDs/HD-DVDs
  626. Duration                                 : 2 h 9 min
  627. Bit rate                                 : 22.3 kb/s
  628. Count of elements                        : 1942
  629. Stream size                              : 20.7 MiB (0%)
  630. Title                                    : Hungarian-PGS
  631. Language                                 : Hungarian
  632. Default                                  : No
  633. Forced                                   : No
  634. Original source medium                   : Blu-ray
  635. Text #18
  636. ID                                       : 34
  637. ID in the original source medium         : 4780 (0x12AC)
  638. Format                                   : PGS
  639. Muxing mode                              : zlib
  640. Codec ID                                 : S_HDMV/PGS
  641. Codec ID/Info                            : Picture based subtitle format used on BDs/HD-DVDs
  642. Duration                                 : 26 min 2 s
  643. Bit rate                                 : 404 b/s
  644. Count of elements                        : 10
  645. Stream size                              : 77.2 KiB (0%)
  646. Title                                    : Hungarian-FORCED-PGS
  647. Language                                 : Hungarian
  648. Default                                  : No
  649. Forced                                   : No
  650. Original source medium                   : Blu-ray
  651. Text #19
  652. ID                                       : 35
  653. ID in the original source medium         : 4781 (0x12AD)
  654. Format                                   : PGS
  655. Muxing mode                              : zlib
  656. Codec ID                                 : S_HDMV/PGS
  657. Codec ID/Info                            : Picture based subtitle format used on BDs/HD-DVDs
  658. Duration                                 : 2 h 2 min
  659. Bit rate                                 : 26.1 kb/s
  660. Count of elements                        : 1950
  661. Stream size                              : 22.8 MiB (0%)
  662. Title                                    : Italian-PGS
  663. Language                                 : Italian
  664. Default                                  : No
  665. Forced                                   : No
  666. Original source medium                   : Blu-ray
  667. Text #20
  668. ID                                       : 36
  669. ID in the original source medium         : 4781 (0x12AD)
  670. Format                                   : PGS
  671. Muxing mode                              : zlib
  672. Codec ID                                 : S_HDMV/PGS
  673. Codec ID/Info                            : Picture based subtitle format used on BDs/HD-DVDs
  674. Duration                                 : 9 min 19 s
  675. Bit rate                                 : 950 b/s
  676. Count of elements                        : 8
  677. Stream size                              : 64.9 KiB (0%)
  678. Title                                    : Italian-FORCED-PGS
  679. Language                                 : Italian
  680. Default                                  : No
  681. Forced                                   : No
  682. Original source medium                   : Blu-ray
  683. Text #21
  684. ID                                       : 37
  685. ID in the original source medium         : 4782 (0x12AE)
  686. Format                                   : PGS
  687. Muxing mode                              : zlib
  688. Codec ID                                 : S_HDMV/PGS
  689. Codec ID/Info                            : Picture based subtitle format used on BDs/HD-DVDs
  690. Duration                                 : 2 h 3 min
  691. Bit rate                                 : 26.1 kb/s
  692. Count of elements                        : 2676
  693. Stream size                              : 23.0 MiB (0%)
  694. Title                                    : Korean-PGS
  695. Language                                 : Korean
  696. Default                                  : No
  697. Forced                                   : No
  698. Original source medium                   : Blu-ray
  699. Text #22
  700. ID                                       : 38
  701. ID in the original source medium         : 4783 (0x12AF)
  702. Format                                   : PGS
  703. Muxing mode                              : zlib
  704. Codec ID                                 : S_HDMV/PGS
  705. Codec ID/Info                            : Picture based subtitle format used on BDs/HD-DVDs
  706. Duration                                 : 2 h 9 min
  707. Bit rate                                 : 24.0 kb/s
  708. Count of elements                        : 1942
  709. Stream size                              : 22.2 MiB (0%)
  710. Title                                    : Norwegian-PGS
  711. Language                                 : Norwegian
  712. Default                                  : No
  713. Forced                                   : No
  714. Original source medium                   : Blu-ray
  715. Text #23
  716. ID                                       : 39
  717. ID in the original source medium         : 4784 (0x12B0)
  718. Format                                   : PGS
  719. Muxing mode                              : zlib
  720. Codec ID                                 : S_HDMV/PGS
  721. Codec ID/Info                            : Picture based subtitle format used on BDs/HD-DVDs
  722. Duration                                 : 2 h 2 min
  723. Bit rate                                 : 22.2 kb/s
  724. Count of elements                        : 1950
  725. Stream size                              : 19.5 MiB (0%)
  726. Title                                    : Polish-PGS
  727. Language                                 : Polish
  728. Default                                  : No
  729. Forced                                   : No
  730. Original source medium                   : Blu-ray
  731. Text #24
  732. ID                                       : 40
  733. ID in the original source medium         : 4784 (0x12B0)
  734. Format                                   : PGS
  735. Muxing mode                              : zlib
  736. Codec ID                                 : S_HDMV/PGS
  737. Codec ID/Info                            : Picture based subtitle format used on BDs/HD-DVDs
  738. Duration                                 : 9 min 19 s
  739. Bit rate                                 : 805 b/s
  740. Count of elements                        : 8
  741. Stream size                              : 55.0 KiB (0%)
  742. Title                                    : Polish-FORCED-PGS
  743. Language                                 : Polish
  744. Default                                  : No
  745. Forced                                   : No
  746. Original source medium                   : Blu-ray
  747. Text #25
  748. ID                                       : 41
  749. ID in the original source medium         : 4785 (0x12B1)
  750. Format                                   : PGS
  751. Muxing mode                              : zlib
  752. Codec ID                                 : S_HDMV/PGS
  753. Codec ID/Info                            : Picture based subtitle format used on BDs/HD-DVDs
  754. Duration                                 : 2 h 9 min
  755. Bit rate                                 : 25.5 kb/s
  756. Count of elements                        : 1986
  757. Stream size                              : 23.7 MiB (0%)
  758. Title                                    : Spanish-PGS
  759. Language                                 : Spanish
  760. Default                                  : No
  761. Forced                                   : No
  762. Original source medium                   : Blu-ray
  763. Text #26
  764. ID                                       : 42
  765. ID in the original source medium         : 4785 (0x12B1)
  766. Format                                   : PGS
  767. Muxing mode                              : zlib
  768. Codec ID                                 : S_HDMV/PGS
  769. Codec ID/Info                            : Picture based subtitle format used on BDs/HD-DVDs
  770. Duration                                 : 26 min 2 s
  771. Bit rate                                 : 529 b/s
  772. Count of elements                        : 10
  773. Stream size                              : 101 KiB (0%)
  774. Title                                    : Spanish-FORCED-PGS
  775. Language                                 : Spanish
  776. Default                                  : No
  777. Forced                                   : No
  778. Original source medium                   : Blu-ray
  779. Text #27
  780. ID                                       : 43
  781. ID in the original source medium         : 4786 (0x12B2)
  782. Format                                   : PGS
  783. Muxing mode                              : zlib
  784. Codec ID                                 : S_HDMV/PGS
  785. Codec ID/Info                            : Picture based subtitle format used on BDs/HD-DVDs
  786. Duration                                 : 2 h 3 min
  787. Bit rate                                 : 29.0 kb/s
  788. Count of elements                        : 2820
  789. Stream size                              : 25.6 MiB (0%)
  790. Title                                    : Spanish-PGS
  791. Language                                 : Spanish
  792. Default                                  : No
  793. Forced                                   : No
  794. Original source medium                   : Blu-ray
  795. Text #28
  796. ID                                       : 44
  797. ID in the original source medium         : 4786 (0x12B2)
  798. Format                                   : PGS
  799. Muxing mode                              : zlib
  800. Codec ID                                 : S_HDMV/PGS
  801. Codec ID/Info                            : Picture based subtitle format used on BDs/HD-DVDs
  802. Duration                                 : 1 h 47 min
  803. Bit rate                                 : 309 b/s
  804. Count of elements                        : 30
  805. Stream size                              : 243 KiB (0%)
  806. Title                                    : Spanish-FORCED-PGS
  807. Language                                 : Spanish
  808. Default                                  : No
  809. Forced                                   : No
  810. Original source medium                   : Blu-ray
  811. Text #29
  812. ID                                       : 45
  813. ID in the original source medium         : 4787 (0x12B3)
  814. Format                                   : PGS
  815. Muxing mode                              : zlib
  816. Codec ID                                 : S_HDMV/PGS
  817. Codec ID/Info                            : Picture based subtitle format used on BDs/HD-DVDs
  818. Duration                                 : 2 h 9 min
  819. Bit rate                                 : 24.4 kb/s
  820. Count of elements                        : 1942
  821. Stream size                              : 22.6 MiB (0%)
  822. Title                                    : Swedish-PGS
  823. Language                                 : Swedish
  824. Default                                  : No
  825. Forced                                   : No
  826. Original source medium                   : Blu-ray
  827. Text #30
  828. ID                                       : 46
  829. ID in the original source medium         : 4788 (0x12B4)
  830. Format                                   : PGS
  831. Muxing mode                              : zlib
  832. Codec ID                                 : S_HDMV/PGS
  833. Codec ID/Info                            : Picture based subtitle format used on BDs/HD-DVDs
  834. Duration                                 : 2 h 2 min
  835. Bit rate                                 : 32.0 kb/s
  836. Count of elements                        : 2673
  837. Stream size                              : 28.0 MiB (0%)
  838. Title                                    : Thai-PGS
  839. Language                                 : Thai
  840. Default                                  : No
  841. Forced                                   : No
  842. Original source medium                   : Blu-ray
  843. Text #31
  844. ID                                       : 47
  845. ID in the original source medium         : 4788 (0x12B4)
  846. Format                                   : PGS
  847. Muxing mode                              : zlib
  848. Codec ID                                 : S_HDMV/PGS
  849. Codec ID/Info                            : Picture based subtitle format used on BDs/HD-DVDs
  850. Duration                                 : 1 h 52 min
  851. Bit rate                                 : 406 b/s
  852. Count of elements                        : 44
  853. Stream size                              : 335 KiB (0%)
  854. Title                                    : Thai-FORCED-PGS
  855. Language                                 : Thai
  856. Default                                  : No
  857. Forced                                   : No
  858. Original source medium                   : Blu-ray
  859. Text #32
  860. ID                                       : 48
  861. ID in the original source medium         : 4789 (0x12B5)
  862. Format                                   : PGS
  863. Muxing mode                              : zlib
  864. Codec ID                                 : S_HDMV/PGS
  865. Codec ID/Info                            : Picture based subtitle format used on BDs/HD-DVDs
  866. Duration                                 : 2 h 9 min
  867. Bit rate                                 : 151 b/s
  868. Count of elements                        : 20
  869. Stream size                              : 143 KiB (0%)
  870. Title                                    : French-FORCED-PGS
  871. Language                                 : French
  872. Default                                  : No
  873. Forced                                   : No
  874. Original source medium                   : Blu-ray
  875. Text #33
  876. ID                                       : 49
  877. ID in the original source medium         : 4789 (0x12B5)
  878. Format                                   : PGS
  879. Muxing mode                              : zlib
  880. Codec ID                                 : S_HDMV/PGS
  881. Codec ID/Info                            : Picture based subtitle format used on BDs/HD-DVDs
  882. Duration                                 : 2 h 9 min
  883. Bit rate                                 : 151 b/s
  884. Count of elements                        : 20
  885. Stream size                              : 143 KiB (0%)
  886. Title                                    : French-FORCED-PGS
  887. Language                                 : French
  888. Default                                  : No
  889. Forced                                   : No
  890. Original source medium                   : Blu-ray
  891. Text #34
  892. ID                                       : 50
  893. ID in the original source medium         : 4790 (0x12B6)
  894. Format                                   : PGS
  895. Muxing mode                              : zlib
  896. Codec ID                                 : S_HDMV/PGS
  897. Codec ID/Info                            : Picture based subtitle format used on BDs/HD-DVDs
  898. Duration                                 : 2 h 4 min
  899. Bit rate                                 : 43.8 kb/s
  900. Count of elements                        : 3445
  901. Stream size                              : 39.1 MiB (0%)
  902. Title                                    : English-COMMENTARY-PGS
  903. Language                                 : English
  904. Default                                  : No
  905. Forced                                   : No
  906. Original source medium                   : Blu-ray
  907. Text #35
  908. ID                                       : 51
  909. ID in the original source medium         : 4791 (0x12B7)
  910. Format                                   : PGS
  911. Muxing mode                              : zlib
  912. Codec ID                                 : S_HDMV/PGS
  913. Codec ID/Info                            : Picture based subtitle format used on BDs/HD-DVDs
  914. Duration                                 : 2 h 3 min
  915. Bit rate                                 : 32.3 kb/s
  916. Count of elements                        : 3261
  917. Stream size                              : 28.6 MiB (0%)
  918. Title                                    : Chinese-COMMENTARY-PGS
  919. Language                                 : Chinese
  920. Default                                  : No
  921. Forced                                   : No
  922. Original source medium                   : Blu-ray
  923. Text #36
  924. ID                                       : 52
  925. ID in the original source medium         : 4792 (0x12B8)
  926. Format                                   : PGS
  927. Muxing mode                              : zlib
  928. Codec ID                                 : S_HDMV/PGS
  929. Codec ID/Info                            : Picture based subtitle format used on BDs/HD-DVDs
  930. Duration                                 : 2 h 3 min
  931. Bit rate                                 : 35.5 kb/s
  932. Count of elements                        : 2851
  933. Stream size                              : 31.4 MiB (0%)
  934. Title                                    : Dutch-COMMENTARY-PGS
  935. Language                                 : Dutch
  936. Default                                  : No
  937. Forced                                   : No
  938. Original source medium                   : Blu-ray
  939. Text #37
  940. ID                                       : 53
  941. ID in the original source medium         : 4793 (0x12B9)
  942. Format                                   : PGS
  943. Muxing mode                              : zlib
  944. Codec ID                                 : S_HDMV/PGS
  945. Codec ID/Info                            : Picture based subtitle format used on BDs/HD-DVDs
  946. Duration                                 : 2 h 3 min
  947. Bit rate                                 : 37.5 kb/s
  948. Count of elements                        : 3145
  949. Stream size                              : 33.2 MiB (0%)
  950. Title                                    : French-COMMENTARY-PGS
  951. Language                                 : French
  952. Default                                  : No
  953. Forced                                   : No
  954. Original source medium                   : Blu-ray
  955. Text #38
  956. ID                                       : 54
  957. ID in the original source medium         : 4794 (0x12BA)
  958. Format                                   : PGS
  959. Muxing mode                              : zlib
  960. Codec ID                                 : S_HDMV/PGS
  961. Codec ID/Info                            : Picture based subtitle format used on BDs/HD-DVDs
  962. Duration                                 : 2 h 3 min
  963. Bit rate                                 : 41.5 kb/s
  964. Count of elements                        : 3197
  965. Stream size                              : 36.7 MiB (0%)
  966. Title                                    : German-COMMENTARY-PGS
  967. Language                                 : German
  968. Default                                  : No
  969. Forced                                   : No
  970. Original source medium                   : Blu-ray
  971. Text #39
  972. ID                                       : 55
  973. ID in the original source medium         : 4795 (0x12BB)
  974. Format                                   : PGS
  975. Muxing mode                              : zlib
  976. Codec ID                                 : S_HDMV/PGS
  977. Codec ID/Info                            : Picture based subtitle format used on BDs/HD-DVDs
  978. Duration                                 : 2 h 3 min
  979. Bit rate                                 : 37.7 kb/s
  980. Count of elements                        : 3165
  981. Stream size                              : 33.4 MiB (0%)
  982. Title                                    : Italian-COMMENTARY-PGS
  983. Language                                 : Italian
  984. Default                                  : No
  985. Forced                                   : No
  986. Original source medium                   : Blu-ray
  987. Text #40
  988. ID                                       : 56
  989. ID in the original source medium         : 4796 (0x12BC)
  990. Format                                   : PGS
  991. Muxing mode                              : zlib
  992. Codec ID                                 : S_HDMV/PGS
  993. Codec ID/Info                            : Picture based subtitle format used on BDs/HD-DVDs
  994. Duration                                 : 2 h 3 min
  995. Bit rate                                 : 32.1 kb/s
  996. Count of elements                        : 3277
  997. Stream size                              : 28.4 MiB (0%)
  998. Title                                    : Korean-COMMENTARY-PGS
  999. Language                                 : Korean
  1000. Default                                  : No
  1001. Forced                                   : No
  1002. Original source medium                   : Blu-ray
  1003. Text #41
  1004. ID                                       : 57
  1005. ID in the original source medium         : 4797 (0x12BD)
  1006. Format                                   : PGS
  1007. Muxing mode                              : zlib
  1008. Codec ID                                 : S_HDMV/PGS
  1009. Codec ID/Info                            : Picture based subtitle format used on BDs/HD-DVDs
  1010. Duration                                 : 2 h 3 min
  1011. Bit rate                                 : 37.6 kb/s
  1012. Count of elements                        : 3259
  1013. Stream size                              : 33.2 MiB (0%)
  1014. Title                                    : Spanish-COMMENTARY-PGS
  1015. Language                                 : Spanish
  1016. Default                                  : No
  1017. Forced                                   : No
  1018. Original source medium                   : Blu-ray
  1019. Text #42
  1020. ID                                       : 58
  1021. ID in the original source medium         : 4798 (0x12BE)
  1022. Format                                   : PGS
  1023. Muxing mode                              : zlib
  1024. Codec ID                                 : S_HDMV/PGS
  1025. Codec ID/Info                            : Picture based subtitle format used on BDs/HD-DVDs
  1026. Duration                                 : 2 h 3 min
  1027. Bit rate                                 : 41.3 kb/s
  1028. Count of elements                        : 3219
  1029. Stream size                              : 36.6 MiB (0%)
  1030. Title                                    : Spanish-COMMENTARY-PGS
  1031. Language                                 : Spanish
  1032. Default                                  : No
  1033. Forced                                   : No
  1034. Original source medium                   : Blu-ray
  1035. Text #43
  1036. ID                                       : 59
  1037. ID in the original source medium         : 4799 (0x12BF)
  1038. Format                                   : PGS
  1039. Muxing mode                              : zlib
  1040. Codec ID                                 : S_HDMV/PGS
  1041. Codec ID/Info                            : Picture based subtitle format used on BDs/HD-DVDs
  1042. Duration                                 : 2 h 3 min
  1043. Bit rate                                 : 41.7 kb/s
  1044. Count of elements                        : 3277
  1045. Stream size                              : 36.9 MiB (0%)
  1046. Title                                    : Thai-COMMENTARY-PGS
  1047. Language                                 : Thai
  1048. Default                                  : No
  1049. Forced                                   : No
  1050. Original source medium                   : Blu-ray
  1051. Menu
  1052. 00:00:00.000                             : Chapter 01
  1053. 00:08:32.929                             : Chapter 02
  1054. 00:19:23.662                             : Chapter 03
  1055. 00:30:33.122                             : Chapter 04
  1056. 00:37:01.928                             : Chapter 05
  1057. 00:46:52.518                             : Chapter 06
  1058. 00:51:51.817                             : Chapter 07
  1059. 00:59:47.041                             : Chapter 08
  1060. 01:07:06.022                             : Chapter 09
  1061. 01:18:15.816                             : Chapter 10
  1062. 01:24:15.884                             : Chapter 11
  1063. 01:32:16.155                             : Chapter 12
  1064. 01:45:28.905                             : Chapter 13
  1065. 01:50:05.682                             : Chapter 14
  1066. 01:58:50.623                             : Chapter 15
  1067. 02:02:03.983                             : Chapter 16
复制代码




                                       
                                       

                                       
                                       
                                       




回复

使用道具 举报

懒得打字嘛,点击右侧快捷回复 【右侧内容,后台自定义】
您需要登录后才可以回帖 登录 | 立即加入

本版积分规则

Archiver|小黑屋| 蓝光电影网 |网站地图

Copyright © 2021 Comsenz Inc. Powered by 蓝光电影网

蓝光电影网

本站内容由用户自主分享和转载自互联网,转载目的在于传递更多信息,并不代表本网赞同其观点和对其真实性负责。

如有侵权、违反国家法律政策行为,请联系我们,我们会第一时间及时清除和处理!

举报反馈邮箱:[email protected]

快速回复 返回顶部 返回列表