找回密码

蓝光电影网

查看: 96|回复: 0

[2160p] 海绵宝宝:营救大冒险 The.SpongeBob.Movie.Sponge.on.the.Run.2020.2160p.NF.WEB-DL.x265.10bit.HDR.DDP5.1.Atmos-ABBiE 9.86GB

[复制链接]
蓝光币
1084
发表于 2020-11-6 20:44:17 | 显示全部楼层 |阅读模式


◎译  名 海绵宝宝:救援大冒险/It's a Wonderful Sponge/Spongebob Movie 3/SpongeBob Squarepants 3/海绵宝宝:奔驰吧(台)/海绵宝宝:吃紧脚走佬(港)/海绵宝宝3
◎片  名 The SpongeBob Movie: Sponge on the Run
◎年  代 2020
◎产  地 美国,韩国
◎类  别 笑剧 / 动画 / 冒险
◎语  言 英语
◎上映日期 2020-08-14(加拿大) / 2020-11-06(中国大陆收集)
◎IMDb评分  6.3/10 from 575 users
◎IMDb链接  https://www.imdb.com/title/tt4823776/
◎豆瓣评分 /10 from 0 users
◎豆瓣链接 https://movie.douban.com/subject/26662159/
◎片  长 91分钟
◎导  演 蒂姆·希尔 Tim Hill
◎编  剧 蒂姆·希尔 Tim Hill / 乔纳森·阿贝尔 Jonathan Aibel / 格伦·伯杰 Glenn Berger / 史蒂芬·海伦伯格 Stephen Hillenburg / 保罗·提比特 Paul Tibbitt
◎主  演 基努·里维斯 Keanu Reeves
       奥卡菲娜 Awkwafina
       克兰西·布朗 Clancy Brown
       汤姆·肯尼 Tom Kenny
       比尔·法格巴克 Bill Fagerbakke
       罗里·艾伦 Lori Alan
       劳伦斯师长 Mr. Lawrence
       玛丽·乔·卡特利特 Mary Jo Catlett
       罗德格尔·邦帕斯 Rodger Bumpass
       吉尔·塔利 Jill Talley
       卡罗琳·劳伦斯 Carolyn Lawrence
       维罗妮卡·阿利奇诺 Veronica Alicino
◎标  签 海绵宝宝 | 动画 | 笑剧 | 2020 | 美国 | 3D | 派拉蒙 | Nickelodeon
◎简  介


  《海绵宝宝:救援大冒险》报告了海绵宝宝心爱的宠物小蜗被绑架后,海绵宝宝和派大星前往失落的大西洋城展开救援冒险的故事。在这场布满危险又妙趣横生的救援行动中,海绵宝宝和他的朋友们用现实行动证实了友谊的气力无穷大!
  1. Video
  2. ID                                       : 1
  3. Format                                   : HEVC
  4. Format/Info                              : High Efficiency Video Coding
  5. Format profile                           : Main [email protected]@Main
  6. HDR format                               : SMPTE ST 2086, HDR10 compatible
  7. Codec ID                                 : V_MPEGH/ISO/HEVC
  8. Duration                                 : 1 h 31 min
  9. Bit rate                                 : 14.6 Mb/s
  10. Width                                    : 3 840 pixels
  11. Height                                   : 2 160 pixels
  12. Display aspect ratio                     : 16:9
  13. Frame rate mode                          : Constant
  14. Frame rate                               : 23.976 (24000/1001/189150) FPS
  15. Color space                              : YUV
  16. Chroma subsampling                       : 4:2:0 (Type 2)
  17. Bit depth                                : 10 bits
  18. Bits/(Pixel*Frame)                       : 0.074
  19. Stream size                              : 9.35 GiB (95%)
  20. Default                                  : Yes
  21. Forced                                   : No
  22. Color range                              : Limited
  23. Color primaries                          : BT.2020
  24. Transfer characteristics                 : PQ
  25. Matrix coefficients                      : BT.2020 non-constant
  26. Mastering display color primaries        : Display P3
  27. Mastering display luminance              : min: 0.0001 cd/m2, max: 1000 cd/m2
  28. Maximum Content Light Level              : 994 cd/m2
  29. Maximum Frame-Average Light Level        : 180 cd/m2
  30. Audio
  31. ID                                       : 2
  32. Format                                   : E-AC-3 JOC
  33. Format/Info                              : Enhanced AC-3 with Joint Object Coding
  34. Commercial name                          : Dolby Digital Plus with Dolby Atmos
  35. Codec ID                                 : A_EAC3
  36. Duration                                 : 1 h 35 min
  37. Bit rate mode                            : Constant
  38. Bit rate                                 : 768 kb/s
  39. Channel(s)                               : 6 channels
  40. Channel layout                           : L R C LFE Ls Rs
  41. Sampling rate                            : 48.0 kHz
  42. Frame rate                               : 31.250 FPS (1536 SPF)
  43. Compression mode                         : Lossy
  44. Stream size                              : 524 MiB (5%)
  45. Language                                 : English
  46. Service kind                             : Complete Main
  47. Default                                  : Yes
  48. Forced                                   : No
  49. Complexity index                         : 16
  50. Number of dynamic objects                : 15
  51. Bed channel count                        : 1 channel
  52. Bed channel configuration                : LFE
  53. Text #1
  54. ID                                       : 3
  55. Format                                   : UTF-8
  56. Codec ID                                 : S_TEXT/UTF8
  57. Codec ID/Info                            : UTF-8 Plain Text
  58. Duration                                 : 1 h 29 min
  59. Bit rate                                 : 72 b/s
  60. Count of elements                        : 1664
  61. Stream size                              : 47.7 KiB (0%)
  62. Title                                    : [CC]
  63. Language                                 : English
  64. Default                                  : Yes
  65. Forced                                   : No
  66. Text #2
  67. ID                                       : 4
  68. Format                                   : UTF-8
  69. Codec ID                                 : S_TEXT/UTF8
  70. Codec ID/Info                            : UTF-8 Plain Text
  71. Duration                                 : 1 h 30 min
  72. Bit rate                                 : 90 b/s
  73. Count of elements                        : 1323
  74. Stream size                              : 60.0 KiB (0%)
  75. Language                                 : Arabic
  76. Default                                  : No
  77. Forced                                   : No
  78. Text #3
  79. ID                                       : 5
  80. Format                                   : UTF-8
  81. Codec ID                                 : S_TEXT/UTF8
  82. Codec ID/Info                            : UTF-8 Plain Text
  83. Duration                                 : 1 h 30 min
  84. Bit rate                                 : 95 b/s
  85. Count of elements                        : 1342
  86. Stream size                              : 63.3 KiB (0%)
  87. Language                                 : Bulgarian
  88. Default                                  : No
  89. Forced                                   : No
  90. Text #4
  91. ID                                       : 6
  92. Format                                   : UTF-8
  93. Codec ID                                 : S_TEXT/UTF8
  94. Codec ID/Info                            : UTF-8 Plain Text
  95. Duration                                 : 1 h 30 min
  96. Bit rate                                 : 59 b/s
  97. Count of elements                        : 1329
  98. Stream size                              : 39.9 KiB (0%)
  99. Language                                 : Czech
  100. Default                                  : No
  101. Forced                                   : No
  102. Text #5
  103. ID                                       : 7
  104. Format                                   : UTF-8
  105. Codec ID                                 : S_TEXT/UTF8
  106. Codec ID/Info                            : UTF-8 Plain Text
  107. Duration                                 : 1 h 30 min
  108. Bit rate                                 : 49 b/s
  109. Count of elements                        : 1296
  110. Stream size                              : 32.7 KiB (0%)
  111. Language                                 : Danish
  112. Default                                  : No
  113. Forced                                   : No
  114. Text #6
  115. ID                                       : 8
  116. Format                                   : UTF-8
  117. Codec ID                                 : S_TEXT/UTF8
  118. Codec ID/Info                            : UTF-8 Plain Text
  119. Duration                                 : 1 h 30 min
  120. Bit rate                                 : 60 b/s
  121. Count of elements                        : 1309
  122. Stream size                              : 40.1 KiB (0%)
  123. Language                                 : German
  124. Default                                  : No
  125. Forced                                   : No
  126. Text #7
  127. ID                                       : 9
  128. Format                                   : UTF-8
  129. Codec ID                                 : S_TEXT/UTF8
  130. Codec ID/Info                            : UTF-8 Plain Text
  131. Duration                                 : 1 h 30 min
  132. Bit rate                                 : 102 b/s
  133. Count of elements                        : 1337
  134. Stream size                              : 68.2 KiB (0%)
  135. Language                                 : Greek
  136. Default                                  : No
  137. Forced                                   : No
  138. Text #8
  139. ID                                       : 10
  140. Format                                   : UTF-8
  141. Codec ID                                 : S_TEXT/UTF8
  142. Codec ID/Info                            : UTF-8 Plain Text
  143. Duration                                 : 1 h 30 min
  144. Bit rate                                 : 61 b/s
  145. Count of elements                        : 1234
  146. Stream size                              : 40.6 KiB (0%)
  147. Language                                 : Spanish
  148. Default                                  : No
  149. Forced                                   : No
  150. Text #9
  151. ID                                       : 11
  152. Format                                   : UTF-8
  153. Codec ID                                 : S_TEXT/UTF8
  154. Codec ID/Info                            : UTF-8 Plain Text
  155. Duration                                 : 1 h 30 min
  156. Bit rate                                 : 60 b/s
  157. Count of elements                        : 1329
  158. Stream size                              : 40.2 KiB (0%)
  159. Title                                    : European
  160. Language                                 : Spanish
  161. Default                                  : No
  162. Forced                                   : No
  163. Text #10
  164. ID                                       : 12
  165. Format                                   : UTF-8
  166. Codec ID                                 : S_TEXT/UTF8
  167. Codec ID/Info                            : UTF-8 Plain Text
  168. Duration                                 : 1 h 30 min
  169. Bit rate                                 : 58 b/s
  170. Count of elements                        : 1335
  171. Stream size                              : 39.3 KiB (0%)
  172. Language                                 : Estonian
  173. Default                                  : No
  174. Forced                                   : No
  175. Text #11
  176. ID                                       : 13
  177. Format                                   : UTF-8
  178. Codec ID                                 : S_TEXT/UTF8
  179. Codec ID/Info                            : UTF-8 Plain Text
  180. Duration                                 : 1 h 30 min
  181. Bit rate                                 : 54 b/s
  182. Count of elements                        : 1336
  183. Stream size                              : 36.5 KiB (0%)
  184. Language                                 : Finnish
  185. Default                                  : No
  186. Forced                                   : No
  187. Text #12
  188. ID                                       : 14
  189. Format                                   : UTF-8
  190. Codec ID                                 : S_TEXT/UTF8
  191. Codec ID/Info                            : UTF-8 Plain Text
  192. Duration                                 : 1 h 30 min
  193. Bit rate                                 : 52 b/s
  194. Count of elements                        : 1373
  195. Stream size                              : 35.3 KiB (0%)
  196. Language                                 : French
  197. Default                                  : No
  198. Forced                                   : No
  199. Text #13
  200. ID                                       : 15
  201. Format                                   : UTF-8
  202. Codec ID                                 : S_TEXT/UTF8
  203. Codec ID/Info                            : UTF-8 Plain Text
  204. Duration                                 : 1 h 30 min
  205. Bit rate                                 : 71 b/s
  206. Count of elements                        : 1325
  207. Stream size                              : 47.7 KiB (0%)
  208. Language                                 : Irish
  209. Default                                  : No
  210. Forced                                   : No
  211. Text #14
  212. ID                                       : 16
  213. Format                                   : UTF-8
  214. Codec ID                                 : S_TEXT/UTF8
  215. Codec ID/Info                            : UTF-8 Plain Text
  216. Duration                                 : 1 h 30 min
  217. Bit rate                                 : 79 b/s
  218. Count of elements                        : 1289
  219. Stream size                              : 53.0 KiB (0%)
  220. Language                                 : Hebrew
  221. Default                                  : No
  222. Forced                                   : No
  223. Text #15
  224. ID                                       : 17
  225. Format                                   : UTF-8
  226. Codec ID                                 : S_TEXT/UTF8
  227. Codec ID/Info                            : UTF-8 Plain Text
  228. Duration                                 : 1 h 30 min
  229. Bit rate                                 : 155 b/s
  230. Count of elements                        : 1342
  231. Stream size                              : 103 KiB (0%)
  232. Language                                 : Hindi
  233. Default                                  : No
  234. Forced                                   : No
  235. Text #16
  236. ID                                       : 18
  237. Format                                   : UTF-8
  238. Codec ID                                 : S_TEXT/UTF8
  239. Codec ID/Info                            : UTF-8 Plain Text
  240. Duration                                 : 1 h 30 min
  241. Bit rate                                 : 55 b/s
  242. Count of elements                        : 1336
  243. Stream size                              : 36.7 KiB (0%)
  244. Language                                 : Croatian
  245. Default                                  : No
  246. Forced                                   : No
  247. Text #17
  248. ID                                       : 19
  249. Format                                   : UTF-8
  250. Codec ID                                 : S_TEXT/UTF8
  251. Codec ID/Info                            : UTF-8 Plain Text
  252. Duration                                 : 1 h 30 min
  253. Bit rate                                 : 59 b/s
  254. Count of elements                        : 1338
  255. Stream size                              : 39.6 KiB (0%)
  256. Language                                 : Hungarian
  257. Default                                  : No
  258. Forced                                   : No
  259. Text #18
  260. ID                                       : 20
  261. Format                                   : UTF-8
  262. Codec ID                                 : S_TEXT/UTF8
  263. Codec ID/Info                            : UTF-8 Plain Text
  264. Duration                                 : 1 h 30 min
  265. Bit rate                                 : 56 b/s
  266. Count of elements                        : 1264
  267. Stream size                              : 37.8 KiB (0%)
  268. Language                                 : Indonesian
  269. Default                                  : No
  270. Forced                                   : No
  271. Text #19
  272. ID                                       : 21
  273. Format                                   : UTF-8
  274. Codec ID                                 : S_TEXT/UTF8
  275. Codec ID/Info                            : UTF-8 Plain Text
  276. Duration                                 : 1 h 30 min
  277. Bit rate                                 : 62 b/s
  278. Count of elements                        : 1265
  279. Stream size                              : 41.4 KiB (0%)
  280. Language                                 : Icelandic
  281. Default                                  : No
  282. Forced                                   : No
  283. Text #20
  284. ID                                       : 22
  285. Format                                   : UTF-8
  286. Codec ID                                 : S_TEXT/UTF8
  287. Codec ID/Info                            : UTF-8 Plain Text
  288. Duration                                 : 1 h 30 min
  289. Bit rate                                 : 62 b/s
  290. Count of elements                        : 1238
  291. Stream size                              : 41.9 KiB (0%)
  292. Language                                 : Italian
  293. Default                                  : No
  294. Forced                                   : No
  295. Text #21
  296. ID                                       : 23
  297. Format                                   : UTF-8
  298. Codec ID                                 : S_TEXT/UTF8
  299. Codec ID/Info                            : UTF-8 Plain Text
  300. Duration                                 : 1 h 30 min
  301. Bit rate                                 : 62 b/s
  302. Count of elements                        : 1382
  303. Stream size                              : 41.3 KiB (0%)
  304. Language                                 : Japanese
  305. Default                                  : No
  306. Forced                                   : No
  307. Text #22
  308. ID                                       : 24
  309. Format                                   : UTF-8
  310. Codec ID                                 : S_TEXT/UTF8
  311. Codec ID/Info                            : UTF-8 Plain Text
  312. Duration                                 : 1 h 30 min
  313. Bit rate                                 : 67 b/s
  314. Count of elements                        : 1264
  315. Stream size                              : 45.1 KiB (0%)
  316. Language                                 : Korean
  317. Default                                  : No
  318. Forced                                   : No
  319. Text #23
  320. ID                                       : 25
  321. Format                                   : UTF-8
  322. Codec ID                                 : S_TEXT/UTF8
  323. Codec ID/Info                            : UTF-8 Plain Text
  324. Duration                                 : 1 h 30 min
  325. Bit rate                                 : 58 b/s
  326. Count of elements                        : 1288
  327. Stream size                              : 38.7 KiB (0%)
  328. Language                                 : Lithuanian
  329. Default                                  : No
  330. Forced                                   : No
  331. Text #24
  332. ID                                       : 26
  333. Format                                   : UTF-8
  334. Codec ID                                 : S_TEXT/UTF8
  335. Codec ID/Info                            : UTF-8 Plain Text
  336. Duration                                 : 1 h 30 min
  337. Bit rate                                 : 58 b/s
  338. Count of elements                        : 1341
  339. Stream size                              : 39.2 KiB (0%)
  340. Language                                 : Latvian
  341. Default                                  : No
  342. Forced                                   : No
  343. Text #25
  344. ID                                       : 27
  345. Format                                   : UTF-8
  346. Codec ID                                 : S_TEXT/UTF8
  347. Codec ID/Info                            : UTF-8 Plain Text
  348. Duration                                 : 1 h 30 min
  349. Bit rate                                 : 55 b/s
  350. Count of elements                        : 1325
  351. Stream size                              : 36.8 KiB (0%)
  352. Language                                 : Malay
  353. Default                                  : No
  354. Forced                                   : No
  355. Text #26
  356. ID                                       : 28
  357. Format                                   : UTF-8
  358. Codec ID                                 : S_TEXT/UTF8
  359. Codec ID/Info                            : UTF-8 Plain Text
  360. Duration                                 : 1 h 30 min
  361. Bit rate                                 : 57 b/s
  362. Count of elements                        : 1329
  363. Stream size                              : 38.4 KiB (0%)
  364. Language                                 : Norwegian Bokmal
  365. Default                                  : No
  366. Forced                                   : No
  367. Text #27
  368. ID                                       : 29
  369. Format                                   : UTF-8
  370. Codec ID                                 : S_TEXT/UTF8
  371. Codec ID/Info                            : UTF-8 Plain Text
  372. Duration                                 : 1 h 30 min
  373. Bit rate                                 : 55 b/s
  374. Count of elements                        : 1033
  375. Stream size                              : 36.8 KiB (0%)
  376. Language                                 : Dutch
  377. Default                                  : No
  378. Forced                                   : No
  379. Text #28
  380. ID                                       : 30
  381. Format                                   : UTF-8
  382. Codec ID                                 : S_TEXT/UTF8
  383. Codec ID/Info                            : UTF-8 Plain Text
  384. Duration                                 : 1 h 30 min
  385. Bit rate                                 : 57 b/s
  386. Count of elements                        : 1297
  387. Stream size                              : 38.4 KiB (0%)
  388. Title                                    : Flemish
  389. Language                                 : Dutch
  390. Default                                  : No
  391. Forced                                   : No
  392. Text #29
  393. ID                                       : 31
  394. Format                                   : UTF-8
  395. Codec ID                                 : S_TEXT/UTF8
  396. Codec ID/Info                            : UTF-8 Plain Text
  397. Duration                                 : 1 h 30 min
  398. Bit rate                                 : 55 b/s
  399. Count of elements                        : 1318
  400. Stream size                              : 37.0 KiB (0%)
  401. Language                                 : Polish
  402. Default                                  : No
  403. Forced                                   : No
  404. Text #30
  405. ID                                       : 32
  406. Format                                   : UTF-8
  407. Codec ID                                 : S_TEXT/UTF8
  408. Codec ID/Info                            : UTF-8 Plain Text
  409. Duration                                 : 1 h 30 min
  410. Bit rate                                 : 63 b/s
  411. Count of elements                        : 1321
  412. Stream size                              : 42.3 KiB (0%)
  413. Language                                 : Portuguese
  414. Default                                  : No
  415. Forced                                   : No
  416. Text #31
  417. ID                                       : 33
  418. Format                                   : UTF-8
  419. Codec ID                                 : S_TEXT/UTF8
  420. Codec ID/Info                            : UTF-8 Plain Text
  421. Duration                                 : 1 h 30 min
  422. Bit rate                                 : 58 b/s
  423. Count of elements                        : 1323
  424. Stream size                              : 38.9 KiB (0%)
  425. Title                                    : Brazilian
  426. Language                                 : Portuguese
  427. Default                                  : No
  428. Forced                                   : No
  429. Text #32
  430. ID                                       : 34
  431. Format                                   : UTF-8
  432. Codec ID                                 : S_TEXT/UTF8
  433. Codec ID/Info                            : UTF-8 Plain Text
  434. Duration                                 : 1 h 30 min
  435. Bit rate                                 : 65 b/s
  436. Count of elements                        : 1320
  437. Stream size                              : 43.8 KiB (0%)
  438. Language                                 : Romanian
  439. Default                                  : No
  440. Forced                                   : No
  441. Text #33
  442. ID                                       : 35
  443. Format                                   : UTF-8
  444. Codec ID                                 : S_TEXT/UTF8
  445. Codec ID/Info                            : UTF-8 Plain Text
  446. Duration                                 : 1 h 30 min
  447. Bit rate                                 : 97 b/s
  448. Count of elements                        : 1342
  449. Stream size                              : 65.2 KiB (0%)
  450. Language                                 : Russian
  451. Default                                  : No
  452. Forced                                   : No
  453. Text #34
  454. ID                                       : 36
  455. Format                                   : UTF-8
  456. Codec ID                                 : S_TEXT/UTF8
  457. Codec ID/Info                            : UTF-8 Plain Text
  458. Duration                                 : 1 h 30 min
  459. Bit rate                                 : 58 b/s
  460. Count of elements                        : 1325
  461. Stream size                              : 39.2 KiB (0%)
  462. Language                                 : Slovak
  463. Default                                  : No
  464. Forced                                   : No
  465. Text #35
  466. ID                                       : 37
  467. Format                                   : UTF-8
  468. Codec ID                                 : S_TEXT/UTF8
  469. Codec ID/Info                            : UTF-8 Plain Text
  470. Duration                                 : 1 h 30 min
  471. Bit rate                                 : 54 b/s
  472. Count of elements                        : 1332
  473. Stream size                              : 36.0 KiB (0%)
  474. Language                                 : Slovenian
  475. Default                                  : No
  476. Forced                                   : No
  477. Text #36
  478. ID                                       : 38
  479. Format                                   : UTF-8
  480. Codec ID                                 : S_TEXT/UTF8
  481. Codec ID/Info                            : UTF-8 Plain Text
  482. Duration                                 : 1 h 30 min
  483. Bit rate                                 : 66 b/s
  484. Count of elements                        : 1335
  485. Stream size                              : 44.0 KiB (0%)
  486. Title                                    : Latin
  487. Language                                 : Serbian
  488. Default                                  : No
  489. Forced                                   : No
  490. Text #37
  491. ID                                       : 39
  492. Format                                   : UTF-8
  493. Codec ID                                 : S_TEXT/UTF8
  494. Codec ID/Info                            : UTF-8 Plain Text
  495. Duration                                 : 1 h 30 min
  496. Bit rate                                 : 59 b/s
  497. Count of elements                        : 1332
  498. Stream size                              : 39.5 KiB (0%)
  499. Language                                 : Swedish
  500. Default                                  : No
  501. Forced                                   : No
  502. Text #38
  503. ID                                       : 40
  504. Format                                   : UTF-8
  505. Codec ID                                 : S_TEXT/UTF8
  506. Codec ID/Info                            : UTF-8 Plain Text
  507. Duration                                 : 1 h 30 min
  508. Bit rate                                 : 178 b/s
  509. Count of elements                        : 1343
  510. Stream size                              : 119 KiB (0%)
  511. Language                                 : Tamil
  512. Default                                  : No
  513. Forced                                   : No
  514. Text #39
  515. ID                                       : 41
  516. Format                                   : UTF-8
  517. Codec ID                                 : S_TEXT/UTF8
  518. Codec ID/Info                            : UTF-8 Plain Text
  519. Duration                                 : 1 h 30 min
  520. Bit rate                                 : 166 b/s
  521. Count of elements                        : 1342
  522. Stream size                              : 111 KiB (0%)
  523. Language                                 : Telugu
  524. Default                                  : No
  525. Forced                                   : No
  526. Text #40
  527. ID                                       : 42
  528. Format                                   : UTF-8
  529. Codec ID                                 : S_TEXT/UTF8
  530. Codec ID/Info                            : UTF-8 Plain Text
  531. Duration                                 : 1 h 30 min
  532. Bit rate                                 : 146 b/s
  533. Count of elements                        : 1277
  534. Stream size                              : 97.5 KiB (0%)
  535. Language                                 : Thai
  536. Default                                  : No
  537. Forced                                   : No
  538. Text #41
  539. ID                                       : 43
  540. Format                                   : UTF-8
  541. Codec ID                                 : S_TEXT/UTF8
  542. Codec ID/Info                            : UTF-8 Plain Text
  543. Duration                                 : 1 h 30 min
  544. Bit rate                                 : 59 b/s
  545. Count of elements                        : 1331
  546. Stream size                              : 39.6 KiB (0%)
  547. Language                                 : Turkish
  548. Default                                  : No
  549. Forced                                   : No
  550. Text #42
  551. ID                                       : 44
  552. Format                                   : UTF-8
  553. Codec ID                                 : S_TEXT/UTF8
  554. Codec ID/Info                            : UTF-8 Plain Text
  555. Duration                                 : 1 h 30 min
  556. Bit rate                                 : 98 b/s
  557. Count of elements                        : 1341
  558. Stream size                              : 65.5 KiB (0%)
  559. Language                                 : Ukrainian
  560. Default                                  : No
  561. Forced                                   : No
  562. Text #43
  563. ID                                       : 45
  564. Format                                   : UTF-8
  565. Codec ID                                 : S_TEXT/UTF8
  566. Codec ID/Info                            : UTF-8 Plain Text
  567. Duration                                 : 1 h 30 min
  568. Bit rate                                 : 85 b/s
  569. Count of elements                        : 1336
  570. Stream size                              : 57.3 KiB (0%)
  571. Language                                 : Vietnamese
  572. Default                                  : No
  573. Forced                                   : No
  574. Text #44
  575. ID                                       : 46
  576. Format                                   : UTF-8
  577. Codec ID                                 : S_TEXT/UTF8
  578. Codec ID/Info                            : UTF-8 Plain Text
  579. Duration                                 : 1 h 30 min
  580. Bit rate                                 : 58 b/s
  581. Count of elements                        : 1260
  582. Stream size                              : 39.1 KiB (0%)
  583. Title                                    : Cantonese
  584. Language                                 : Chinese
  585. Default                                  : No
  586. Forced                                   : No
  587. Text #45
  588. ID                                       : 47
  589. Format                                   : UTF-8
  590. Codec ID                                 : S_TEXT/UTF8
  591. Codec ID/Info                            : UTF-8 Plain Text
  592. Duration                                 : 1 h 30 min
  593. Bit rate                                 : 63 b/s
  594. Count of elements                        : 1284
  595. Stream size                              : 42.4 KiB (0%)
  596. Title                                    : Simplified
  597. Language                                 : Chinese
  598. Default                                  : No
  599. Forced                                   : No
  600. Text #46
  601. ID                                       : 48
  602. Format                                   : UTF-8
  603. Codec ID                                 : S_TEXT/UTF8
  604. Codec ID/Info                            : UTF-8 Plain Text
  605. Duration                                 : 1 h 30 min
  606. Bit rate                                 : 55 b/s
  607. Count of elements                        : 1268
  608. Stream size                              : 36.8 KiB (0%)
  609. Title                                    : Traditional
  610. Language                                 : Chinese
  611. Default                                  : No
  612. Forced                                   : No
复制代码



                                       
                                       

                                       
                                       
                                       




海绵宝宝:救援大冒险 The.SpongeBob.Movie.Sponge.on.the.Run.2020.2160p.NF.WEB-DL.x265.10bit.HDR.DDP5.1.Atmos-ABBiE 9.86GB

The.SpongeBob.Movie.Sponge.on.the.Run.2020.2160p.NF.WEB-DL.x265.10bit.HDR.DDP5.1.zip

50.91 KB, 下载次数: 1, 下载积分: 蓝光币 -2

回复

使用道具 举报

懒得打字嘛,点击右侧快捷回复 【右侧内容,后台自定义】
您需要登录后才可以回帖 登录 | 立即加入

本版积分规则

Archiver|小黑屋| 蓝光电影网 |网站地图

Copyright © 2021 Comsenz Inc. Powered by 蓝光电影网

蓝光电影网

本站内容由用户自主分享和转载自互联网,转载目的在于传递更多信息,并不代表本网赞同其观点和对其真实性负责。

如有侵权、违反国家法律政策行为,请联系我们,我们会第一时间及时清除和处理!

举报反馈邮箱:[email protected]

快速回复 返回顶部 返回列表