找回密码

蓝光电影网

查看: 101|回复: 0

[2160p] 花木兰/木兰传说 Mulan.2020.2160p.BluRay.x265.10bit.SDR.DTS-HD.MA.TrueHD.7.1.Atmos-SWTYBLZ 29.84GB

[复制链接]
蓝光币
1082
发表于 2020-11-6 14:18:00 | 显示全部楼层 |阅读模式


◎译  名 花木兰/木兰传闻/花木兰真人版/迪士尼真人版花木兰
◎片  名 Mulan
◎年  代 2020
◎产  地 美国,中国大陆
◎类  别 剧情 / 行动 / 奇异 / 冒险 / 古装
◎语  言 英语,汉语普通话
◎上映日期 2020-09-04(美国收集) / 2020-09-11(中国大陆)
◎IMDb评分  5.4/10 from 66486 users
◎IMDb链接  https://www.imdb.com/title/tt4566758/
◎豆瓣评分 5.0/10 from 222931 users
◎豆瓣链接 https://movie.douban.com/subject/26357307/
◎片  长 115分钟
◎导  演 妮琪·卡罗 Niki Caro
◎编  剧 劳伦·希内克 Lauren Hynek / 里克·杰法 Rick Jaffa / 伊丽莎白·马丁 Elizabeth Martin / 阿曼达·斯尔沃 Amanda Silver
◎主  演 刘亦菲 Yifei Liu
       甄子丹 Donnie Yen
       巩俐 Li Gong
       李连杰 Jet Li
       李截 Jason Scott Lee
       安柚鑫 Yoson An
       马泰 Tzi Ma
       赵家玲 Rosalind Chao
       郑佩佩 Pei-pei Cheng
       温明娜 Ming-Na Wen
       曾晓童 Xana Tang
       袁文忠 Ron Yuan
       唐辰瀛 Chen Tang
       道阿·茂阿 Doua Moua
       黄谷悦 Jimmy Wong
       尼尔森·李 Nelson Lee
       李勋 Hoon Lee
       饶雪晶 Crystal Rao
       袁之正 Roger Yuan
       仁成外桥 Jen Sung Outerbridge
       加里·扬 Gary Young
       欧文·邝 Owen Kwong
       乌特卡什·安邦德卡尔 Utkarsh Ambudkar
       钱姆·艾希勒珀拉 Chum Ehelepola
       大卫·T·林 David T·Lim
       詹森·郑 Jenson Cheng
       Jun Yu
◎标  签 花木兰 | 刘亦菲 | 迪士尼 | 真人版 | Disney | 美国 | 古装 | 电影
◎简  介


  迪士尼影业声誉出品《花木兰》由备受赞誉的电影导演妮基·卡罗执导,将中国传奇战士的史诗故事全新显现。影片报告了一位无所害怕的年轻女子义无返顾为家国而战,成为中国史上最著名的巨大勇士之一。当天子命令境内每个家庭必须有一位男丁应召出征,抵抗北方来犯者入侵,身世军戎之家的长女花木兰,自告奋勇,替病痛缠身的父亲应征参军。她女扮男装假名“花军”,一路历经考验,把握自己心里的气力,激起实在的潜能。经过这段传奇过程,她将成为一位名誉的勇士,不但赢得国家的认可,更赢得父亲的自豪。
◎获奖情况
  第6届豆瓣电影年度榜单 ?(2019)
  最值得期待的外语电影(提名)
  1. Video
  2. ID                                       : 1
  3. Format                                   : HEVC
  4. Format/Info                              : High Efficiency Video Coding
  5. Format profile                           : Main [email protected]@High
  6. Codec ID                                 : V_MPEGH/ISO/HEVC
  7. Duration                                 : 1 h 55 min
  8. Bit rate                                 : 27.3 Mb/s
  9. Width                                    : 3 840 pixels
  10. Height                                   : 1 608 pixels
  11. Display aspect ratio                     : 2.40:1
  12. Frame rate mode                          : Constant
  13. Frame rate                               : 23.976 (24000/1001/189150) FPS
  14. Color space                              : YUV
  15. Chroma subsampling                       : 4:2:0
  16. Bit depth                                : 10 bits
  17. Bits/(Pixel*Frame)                       : 0.184
  18. Stream size                              : 22.0 GiB (74%)
  19. Title                                    : Mulan.2020.2160p.BluRay.x265.10bit.SDR.DTS-HD.MA.TrueHD.7.1.Atmos-SWTYBLZ
  20. Writing library                          : x265 3.0ed72af837053:[Windows][GCC 8.2.0][64 bit] 10bit
  21. Encoding settings                        : cpuid=1111039 / frame-threads=6 / numa-pools=40 / wpp / no-pmode / no-pme / no-psnr / no-ssim / log-level=2 / input-csp=1 / input-res=3840x1608 / interlace=0 / total-frames=165704 / level-idc=51 / high-tier=1 / uhd-bd=0 / ref=3 / no-allow-non-conformance / repeat-headers / annexb / aud / hrd / info / hash=0 / no-temporal-layers / no-open-gop / min-keyint=1 / keyint=24 / gop-lookahead=0 / bframes=4 / b-adapt=2 / b-pyramid / bframe-bias=0 / rc-lookahead=25 / lookahead-slices=4 / scenecut=40 / radl=0 / no-splice / no-intra-refresh / ctu=64 / min-cu-size=8 / no-rect / no-amp / max-tu-size=32 / tu-inter-depth=1 / tu-intra-depth=1 / limit-tu=0 / rdoq-level=0 / dynamic-rd=0.00 / no-ssim-rd / signhide / no-tskip / nr-intra=0 / nr-inter=0 / no-constrained-intra / strong-intra-smoothing / max-merge=2 / limit-refs=3 / no-limit-modes / me=1 / subme=2 / merange=57 / temporal-mvp / weightp / no-weightb / no-analyze-src-pics / deblock=0:0 / no-sao / no-sao-non-deblock / rd=3 / no-early-skip / rskip / no-fast-intra / no-tskip-fast / no-cu-lossless / no-b-intra / no-splitrd-skip / rdpenalty=0 / psy-rd=2.00 / psy-rdoq=0.00 / no-rd-refine / no-lossless / cbqpoffs=0 / crqpoffs=0 / rc=crf / crf=16.0 / qcomp=0.60 / qpstep=4 / stats-write=0 / stats-read=0 / vbv-maxrate=160000 / vbv-bufsize=160000 / vbv-init=0.9 / crf-max=0.0 / crf-min=0.0 / ipratio=1.40 / pbratio=1.30 / aq-mode=1 / aq-strength=1.00 / cutree / zone-count=0 / no-strict-cbr / qg-size=32 / no-rc-grain / qpmax=69 / qpmin=0 / no-const-vbv / sar=1 / overscan=0 / videoformat=5 / range=0 / colorprim=2 / transfer=2 / colormatrix=2 / chromaloc=0 / display-window=0 / max-cll=0,0 / min-luma=0 / max-luma=1023 / log2-max-poc-lsb=8 / vui-timing-info / vui-hrd-info / slices=1 / opt-qp-pps / opt-ref-list-length-pps / no-multi-pass-opt-rps / scenecut-bias=0.05 / no-opt-cu-delta-qp / no-aq-motion / no-hdr / no-hdr-opt / no-dhdr10-opt / no-idr-recovery-sei / analysis-reuse-level=5 / scale-factor=0 / refine-intra=0 / refine-inter=0 / refine-mv=0 / refine-ctu-distortion=0 / no-limit-sao / ctu-info=0 / no-lowpass-dct / refine-analysis-type=0 / copy-pic=1 / max-ausize-factor=1.0 / no-dynamic-refine / no-single-sei / no-hevc-aq / qp-adaptation-range=1.00
  22. Default                                  : Yes
  23. Forced                                   : No
  24. Audio #1
  25. ID                                       : 2
  26. Format                                   : DTS XLL
  27. Format/Info                              : Digital Theater Systems
  28. Commercial name                          : DTS-HD Master Audio
  29. Codec ID                                 : A_DTS
  30. Duration                                 : 1 h 55 min
  31. Bit rate mode                            : Variable
  32. Bit rate                                 : 4 260 kb/s
  33. Channel(s)                               : 8 channels
  34. Channel layout                           : C L R LFE Lb Rb Lss Rss
  35. Sampling rate                            : 48.0 kHz
  36. Frame rate                               : 93.750 FPS (512 SPF)
  37. Bit depth                                : 24 bits
  38. Compression mode                         : Lossless
  39. Stream size                              : 3.43 GiB (12%)
  40. Title                                    : Mulan.2020.2160p.BluRay.x265.10bit.SDR.DTS-HD.MA.TrueHD.7.1.Atmos-SWTYBLZ
  41. Language                                 : English
  42. Default                                  : No
  43. Forced                                   : No
  44. Audio #2
  45. ID                                       : 3
  46. Format                                   : MLP FBA 16-ch
  47. Format/Info                              : Meridian Lossless Packing FBA with 16-channel presentation
  48. Commercial name                          : Dolby TrueHD with Dolby Atmos
  49. Codec ID                                 : A_TRUEHD
  50. Duration                                 : 1 h 55 min
  51. Bit rate mode                            : Variable
  52. Bit rate                                 : 4 608 kb/s
  53. Maximum bit rate                         : 8 742 kb/s
  54. Channel(s)                               : 8 channels
  55. Channel layout                           : L R C LFE Ls Rs Lb Rb
  56. Sampling rate                            : 48.0 kHz
  57. Frame rate                               : 1 200.000 FPS (40 SPF)
  58. Compression mode                         : Lossless
  59. Stream size                              : 3.71 GiB (12%)
  60. Title                                    : Mulan.2020.2160p.BluRay.x265.10bit.SDR.DTS-HD.MA.TrueHD.7.1.Atmos-SWTYBLZ
  61. Language                                 : English
  62. Default                                  : Yes
  63. Forced                                   : No
  64. Number of dynamic objects                : 13
  65. Bed channel count                        : 1 channel
  66. Bed channel configuration                : LFE
  67. Audio #3
  68. ID                                       : 4
  69. Format                                   : AC-3
  70. Format/Info                              : Audio Coding 3
  71. Commercial name                          : Dolby Digital
  72. Codec ID                                 : A_AC3
  73. Duration                                 : 1 h 55 min
  74. Bit rate mode                            : Constant
  75. Bit rate                                 : 640 kb/s
  76. Channel(s)                               : 6 channels
  77. Channel layout                           : L R C LFE Ls Rs
  78. Sampling rate                            : 48.0 kHz
  79. Frame rate                               : 31.250 FPS (1536 SPF)
  80. Compression mode                         : Lossy
  81. Stream size                              : 527 MiB (2%)
  82. Title                                    : Mulan.2020.2160p.BluRay.x265.10bit.SDR.DTS-HD.MA.TrueHD.7.1.Atmos-SWTYBLZ
  83. Language                                 : English
  84. Service kind                             : Complete Main
  85. Default                                  : No
  86. Forced                                   : No
  87. Text #1
  88. ID                                       : 5
  89. Format                                   : UTF-8
  90. Codec ID                                 : S_TEXT/UTF8
  91. Codec ID/Info                            : UTF-8 Plain Text
  92. Duration                                 : 1 h 50 min
  93. Bit rate                                 : 30 b/s
  94. Count of elements                        : 921
  95. Stream size                              : 24.5 KiB (0%)
  96. Title                                    : English-SRT
  97. Language                                 : English
  98. Default                                  : Yes
  99. Forced                                   : No
  100. Text #2
  101. ID                                       : 6
  102. Format                                   : PGS
  103. Muxing mode                              : zlib
  104. Codec ID                                 : S_HDMV/PGS
  105. Codec ID/Info                            : Picture based subtitle format used on BDs/HD-DVDs
  106. Duration                                 : 1 h 50 min
  107. Bit rate                                 : 24.2 kb/s
  108. Count of elements                        : 2300
  109. Stream size                              : 19.2 MiB (0%)
  110. Title                                    : English-PGS
  111. Language                                 : English
  112. Default                                  : No
  113. Forced                                   : No
  114. Text #3
  115. ID                                       : 7
  116. Format                                   : PGS
  117. Muxing mode                              : zlib
  118. Codec ID                                 : S_HDMV/PGS
  119. Codec ID/Info                            : Picture based subtitle format used on BDs/HD-DVDs
  120. Duration                                 : 1 h 54 min
  121. Bit rate                                 : 15.8 kb/s
  122. Count of elements                        : 1264
  123. Stream size                              : 12.9 MiB (0%)
  124. Title                                    : Danish-PGS
  125. Language                                 : Danish
  126. Default                                  : No
  127. Forced                                   : No
  128. Text #4
  129. ID                                       : 8
  130. Format                                   : PGS
  131. Muxing mode                              : zlib
  132. Codec ID                                 : S_HDMV/PGS
  133. Codec ID/Info                            : Picture based subtitle format used on BDs/HD-DVDs
  134. Duration                                 : 1 h 54 min
  135. Bit rate                                 : 17.4 kb/s
  136. Count of elements                        : 1570
  137. Stream size                              : 14.2 MiB (0%)
  138. Title                                    : Finnish-PGS
  139. Language                                 : Finnish
  140. Default                                  : No
  141. Forced                                   : No
  142. Text #5
  143. ID                                       : 9
  144. Format                                   : PGS
  145. Muxing mode                              : zlib
  146. Codec ID                                 : S_HDMV/PGS
  147. Codec ID/Info                            : Picture based subtitle format used on BDs/HD-DVDs
  148. Duration                                 : 1 h 54 min
  149. Bit rate                                 : 17.9 kb/s
  150. Count of elements                        : 1608
  151. Stream size                              : 14.6 MiB (0%)
  152. Title                                    : French-PGS
  153. Language                                 : French
  154. Default                                  : No
  155. Forced                                   : No
  156. Text #6
  157. ID                                       : 10
  158. Format                                   : PGS
  159. Muxing mode                              : zlib
  160. Codec ID                                 : S_HDMV/PGS
  161. Codec ID/Info                            : Picture based subtitle format used on BDs/HD-DVDs
  162. Duration                                 : 1 h 54 min
  163. Bit rate                                 : 17.3 kb/s
  164. Count of elements                        : 1542
  165. Stream size                              : 14.1 MiB (0%)
  166. Title                                    : French-PGS
  167. Language                                 : French
  168. Default                                  : No
  169. Forced                                   : No
  170. Text #7
  171. ID                                       : 11
  172. Format                                   : PGS
  173. Muxing mode                              : zlib
  174. Codec ID                                 : S_HDMV/PGS
  175. Codec ID/Info                            : Picture based subtitle format used on BDs/HD-DVDs
  176. Duration                                 : 1 h 54 min
  177. Bit rate                                 : 18.1 kb/s
  178. Count of elements                        : 1866
  179. Stream size                              : 14.8 MiB (0%)
  180. Title                                    : German-PGS
  181. Language                                 : German
  182. Default                                  : No
  183. Forced                                   : No
  184. Text #8
  185. ID                                       : 12
  186. Format                                   : PGS
  187. Muxing mode                              : zlib
  188. Codec ID                                 : S_HDMV/PGS
  189. Codec ID/Info                            : Picture based subtitle format used on BDs/HD-DVDs
  190. Duration                                 : 1 h 54 min
  191. Bit rate                                 : 17.2 kb/s
  192. Count of elements                        : 1568
  193. Stream size                              : 14.1 MiB (0%)
  194. Title                                    : Italian-PGS
  195. Language                                 : Italian
  196. Default                                  : No
  197. Forced                                   : No
  198. Text #9
  199. ID                                       : 13
  200. Format                                   : PGS
  201. Muxing mode                              : zlib
  202. Codec ID                                 : S_HDMV/PGS
  203. Codec ID/Info                            : Picture based subtitle format used on BDs/HD-DVDs
  204. Duration                                 : 1 h 54 min
  205. Bit rate                                 : 15.4 kb/s
  206. Count of elements                        : 1524
  207. Stream size                              : 12.6 MiB (0%)
  208. Title                                    : Japanese-PGS
  209. Language                                 : Japanese
  210. Default                                  : No
  211. Forced                                   : No
  212. Text #10
  213. ID                                       : 14
  214. Format                                   : PGS
  215. Muxing mode                              : zlib
  216. Codec ID                                 : S_HDMV/PGS
  217. Codec ID/Info                            : Picture based subtitle format used on BDs/HD-DVDs
  218. Duration                                 : 1 h 54 min
  219. Bit rate                                 : 16.1 kb/s
  220. Count of elements                        : 1568
  221. Stream size                              : 13.1 MiB (0%)
  222. Title                                    : Norwegian-PGS
  223. Language                                 : Norwegian
  224. Default                                  : No
  225. Forced                                   : No
  226. Text #11
  227. ID                                       : 15
  228. Format                                   : PGS
  229. Muxing mode                              : zlib
  230. Codec ID                                 : S_HDMV/PGS
  231. Codec ID/Info                            : Picture based subtitle format used on BDs/HD-DVDs
  232. Duration                                 : 1 h 43 min
  233. Bit rate                                 : 19.5 kb/s
  234. Count of elements                        : 1566
  235. Stream size                              : 14.5 MiB (0%)
  236. Title                                    : Spanish-PGS
  237. Language                                 : Spanish
  238. Default                                  : No
  239. Forced                                   : No
  240. Text #12
  241. ID                                       : 16
  242. Format                                   : PGS
  243. Muxing mode                              : zlib
  244. Codec ID                                 : S_HDMV/PGS
  245. Codec ID/Info                            : Picture based subtitle format used on BDs/HD-DVDs
  246. Duration                                 : 1 h 54 min
  247. Bit rate                                 : 15.7 kb/s
  248. Count of elements                        : 1398
  249. Stream size                              : 12.8 MiB (0%)
  250. Title                                    : Swedish-PGS
  251. Language                                 : Swedish
  252. Default                                  : No
  253. Forced                                   : No
  254. Menu
  255. 00:00:00.000                             : en:Chapter 1
  256. 00:04:44.117                             : en:Chapter 2
  257. 00:06:26.469                             : en:Chapter 3
  258. 00:09:29.152                             : en:Chapter 4
  259. 00:13:27.223                             : en:Chapter 5
  260. 00:20:51.584                             : en:Chapter 6
  261. 00:26:33.675                             : en:Chapter 7
  262. 00:29:03.992                             : en:Chapter 8
  263. 00:36:48.832                             : en:Chapter 9
  264. 00:41:41.708                             : en:Chapter 10
  265. 00:50:45.668                             : en:Chapter 11
  266. 00:57:19.061                             : en:Chapter 12
  267. 01:01:13.336                             : en:Chapter 13
  268. 01:11:22.820                             : en:Chapter 14
  269. 01:16:34.924                             : en:Chapter 15
  270. 01:22:11.552                             : en:Chapter 16
  271. 01:29:59.060                             : en:Chapter 17
  272. 01:34:59.819                             : en:Chapter 18
  273. 01:38:52.385                             : en:Chapter 19
  274. 01:44:40.399                             : en:Chapter 20
复制代码






                                       
                                       

                                       
                                       
                                       




回复

使用道具 举报

懒得打字嘛,点击右侧快捷回复 【右侧内容,后台自定义】
您需要登录后才可以回帖 登录 | 立即加入

本版积分规则

Archiver|小黑屋| 蓝光电影网 |网站地图

Copyright © 2021 Comsenz Inc. Powered by 蓝光电影网

蓝光电影网

本站内容由用户自主分享和转载自互联网,转载目的在于传递更多信息,并不代表本网赞同其观点和对其真实性负责。

如有侵权、违反国家法律政策行为,请联系我们,我们会第一时间及时清除和处理!

举报反馈邮箱:[email protected]

快速回复 返回顶部 返回列表