找回密码

蓝光电影网

查看: 76|回复: 0

[2160p] 内战前/内战前夕 Antebellum.2020.2160p.BluRay.x264.8bit.SDR.DTS-HD.MA.TrueHD.7.1.Atmos-SWTYBLZ 40.35GB

[复制链接]
蓝光币
1084
发表于 2020-11-5 09:55:28 | 显示全部楼层 |阅读模式


◎译  名 内战前/内战前夜/顫役循环(台)/颤·役·前(港)
◎片  名 Antebellum
◎年  代 2020
◎产  地 美国
◎类  别 剧情 / 悬疑 / 惊悚
◎语  言 英语
◎上映日期 2020-09-18(美国)
◎IMDb评分  5.5/10 from 10555 users
◎IMDb链接  https://www.imdb.com/title/tt10065694/
◎豆瓣评分 6.4/10 from 1561 users
◎豆瓣链接 https://movie.douban.com/subject/34814175/
◎片  长 105分钟
◎导  演 杰拉德·布什 Gerard Bush / 克里斯托弗·伦兹 Christopher Renz
◎编  剧 杰拉德·布什 Gerard Bush / 克里斯托弗·伦兹 Christopher Renz
◎主  演 加奈儿·梦奈 Janelle Monáe
       吉娜·马隆 Jena Malone
       科雷西·克莱门斯 Kiersey Clemons
       罗伯特·阿拉马约 Robert Aramayo
       杰克·休斯顿 Jack Huston
       加布蕾·丝迪贝 Gabourey Sidibe
       埃里克·兰格 Eric Lange
       马克·理查德森二世 Marque Richardson II
       莉莉·考尔斯 Lily Cowles
       汤加伊·基里萨 Tongayi Chirisa
◎标  签 惊悚 | 美国 | 可骇 | 2020 | 剧情 | 历史 | 美国电影 | 时空
◎简  介


  备受推重的著名女作家法朗妮卡原本过着成功人士的美好生活,但是一场经心设想的结构,却令她堕入极端可怖的景况……为求保命,她必须与时候比赛,把握机会,拆解眼前满布谜雾的心寒诡秘。
  1. Video
  2. ID                                       : 1
  3. Format                                   : AVC
  4. Format/Info                              : Advanced Video Codec
  5. Format profile                           : [email protected]
  6. Format settings                          : CABAC / 5 Ref Frames
  7. Format settings, CABAC                   : Yes
  8. Format settings, Reference frames        : 5 frames
  9. Codec ID                                 : V_MPEG4/ISO/AVC
  10. Duration                                 : 1 h 45 min
  11. Bit rate                                 : 45.5 Mb/s
  12. Width                                    : 3 840 pixels
  13. Height                                   : 1 608 pixels
  14. Display aspect ratio                     : 2.40:1
  15. Frame rate mode                          : Constant
  16. Frame rate                               : 23.976 (24000/1001/189150) FPS
  17. Color space                              : YUV
  18. Chroma subsampling                       : 4:2:0
  19. Bit depth                                : 8 bits
  20. Scan type                                : Progressive
  21. Bits/(Pixel*Frame)                       : 0.307
  22. Stream size                              : 33.7 GiB (84%)
  23. Title                                    : Antebellum.2020.2160p.BluRay.x264.8bit.SDR.DTS-HD.MA.TrueHD.7.1.Atmos-SWTYBLZ
  24. Writing library                          : x264 core 157 r2935 545de2f
  25. Encoding settings                        : cabac=1 / ref=5 / deblock=1:-1:-1 / analyse=0x3:0x113 / me=umh / subme=10 / psy=1 / psy_rd=1.00:0.15 / mixed_ref=1 / me_range=48 / chroma_me=1 / trellis=2 / 8x8dct=1 / cqm=0 / deadzone=21,11 / fast_pskip=1 / chroma_qp_offset=-3 / threads=48 / lookahead_threads=4 / sliced_threads=0 / nr=0 / decimate=0 / interlaced=0 / bluray_compat=0 / constrained_intra=0 / bframes=3 / b_pyramid=2 / b_adapt=2 / b_bias=0 / direct=3 / weightb=1 / open_gop=0 / weightp=2 / keyint=250 / keyint_min=23 / scenecut=40 / intra_refresh=0 / rc_lookahead=50 / rc=crf / mbtree=1 / crf=18.0 / qcomp=0.60 / qpmin=0 / qpmax=69 / qpstep=4 / ip_ratio=1.40 / aq=1:1.00
  26. Default                                  : Yes
  27. Forced                                   : No
  28. Audio #1
  29. ID                                       : 2
  30. Format                                   : MLP FBA 16-ch
  31. Format/Info                              : Meridian Lossless Packing FBA with 16-channel presentation
  32. Commercial name                          : Dolby TrueHD with Dolby Atmos
  33. Codec ID                                 : A_TRUEHD
  34. Duration                                 : 1 h 45 min
  35. Bit rate mode                            : Variable
  36. Bit rate                                 : 4 617 kb/s
  37. Maximum bit rate                         : 7 149 kb/s
  38. Channel(s)                               : 8 channels
  39. Channel layout                           : L R C LFE Ls Rs Lb Rb
  40. Sampling rate                            : 48.0 kHz
  41. Frame rate                               : 1 200.000 FPS (40 SPF)
  42. Compression mode                         : Lossless
  43. Stream size                              : 3.42 GiB (9%)
  44. Title                                    : Antebellum.2020.2160p.BluRay.x264.8bit.SDR.DTS-HD.MA.TrueHD.7.1.Atmos-SWTYBLZ
  45. Language                                 : English
  46. Default                                  : Yes
  47. Forced                                   : No
  48. Number of dynamic objects                : 15
  49. Bed channel count                        : 1 channel
  50. Bed channel configuration                : LFE
  51. Audio #2
  52. ID                                       : 3
  53. Format                                   : DTS XLL
  54. Format/Info                              : Digital Theater Systems
  55. Commercial name                          : DTS-HD Master Audio
  56. Codec ID                                 : A_DTS
  57. Duration                                 : 1 h 45 min
  58. Bit rate mode                            : Variable
  59. Bit rate                                 : 3 627 kb/s
  60. Channel(s)                               : 8 channels
  61. Channel layout                           : C L R LFE Lb Rb Lss Rss
  62. Sampling rate                            : 48.0 kHz
  63. Frame rate                               : 93.750 FPS (512 SPF)
  64. Bit depth                                : 24 bits
  65. Compression mode                         : Lossless
  66. Stream size                              : 2.69 GiB (7%)
  67. Title                                    : Antebellum.2020.2160p.BluRay.x264.8bit.SDR.DTS-HD.MA.TrueHD.7.1.Atmos-SWTYBLZ
  68. Language                                 : English
  69. Default                                  : No
  70. Forced                                   : No
  71. Audio #3
  72. ID                                       : 4
  73. Format                                   : AC-3
  74. Format/Info                              : Audio Coding 3
  75. Commercial name                          : Dolby Digital
  76. Codec ID                                 : A_AC3
  77. Duration                                 : 1 h 45 min
  78. Bit rate mode                            : Constant
  79. Bit rate                                 : 448 kb/s
  80. Channel(s)                               : 6 channels
  81. Channel layout                           : L R C LFE Ls Rs
  82. Sampling rate                            : 48.0 kHz
  83. Frame rate                               : 31.250 FPS (1536 SPF)
  84. Compression mode                         : Lossy
  85. Stream size                              : 340 MiB (1%)
  86. Title                                    : Antebellum.2020.2160p.BluRay.x264.8bit.SDR.DTS-HD.MA.TrueHD.7.1.Atmos-SWTYBLZ
  87. Language                                 : English
  88. Service kind                             : Complete Main
  89. Default                                  : No
  90. Forced                                   : No
  91. Text #1
  92. ID                                       : 5
  93. Format                                   : UTF-8
  94. Codec ID                                 : S_TEXT/UTF8
  95. Codec ID/Info                            : UTF-8 Plain Text
  96. Duration                                 : 1 h 40 min
  97. Bit rate                                 : 40 b/s
  98. Count of elements                        : 963
  99. Stream size                              : 29.4 KiB (0%)
  100. Title                                    : English-SRT
  101. Language                                 : English
  102. Default                                  : Yes
  103. Forced                                   : No
  104. Text #2
  105. ID                                       : 6
  106. Format                                   : PGS
  107. Muxing mode                              : zlib
  108. Codec ID                                 : S_HDMV/PGS
  109. Codec ID/Info                            : Picture based subtitle format used on BDs/HD-DVDs
  110. Duration                                 : 1 h 41 min
  111. Bit rate                                 : 30.9 kb/s
  112. Count of elements                        : 2404
  113. Stream size                              : 22.4 MiB (0%)
  114. Title                                    : English-PGS
  115. Language                                 : English
  116. Default                                  : No
  117. Forced                                   : No
  118. Text #3
  119. ID                                       : 7
  120. Format                                   : PGS
  121. Muxing mode                              : zlib
  122. Codec ID                                 : S_HDMV/PGS
  123. Codec ID/Info                            : Picture based subtitle format used on BDs/HD-DVDs
  124. Duration                                 : 1 h 44 min
  125. Bit rate                                 : 21.5 kb/s
  126. Count of elements                        : 1746
  127. Stream size                              : 16.1 MiB (0%)
  128. Title                                    : French-PGS
  129. Language                                 : French
  130. Default                                  : No
  131. Forced                                   : No
  132. Text #4
  133. ID                                       : 8
  134. Format                                   : PGS
  135. Muxing mode                              : zlib
  136. Codec ID                                 : S_HDMV/PGS
  137. Codec ID/Info                            : Picture based subtitle format used on BDs/HD-DVDs
  138. Duration                                 : 1 h 41 min
  139. Bit rate                                 : 22.9 kb/s
  140. Count of elements                        : 1776
  141. Stream size                              : 16.6 MiB (0%)
  142. Title                                    : Spanish-PGS
  143. Language                                 : Spanish
  144. Default                                  : No
  145. Forced                                   : No
  146. Menu
  147. 00:00:00.000                             : en:Chapter 1
  148. 00:07:53.348                             : en:Chapter 2
  149. 00:12:54.649                             : en:Chapter 3
  150. 00:18:24.603                             : en:Chapter 4
  151. 00:22:50.578                             : en:Chapter 5
  152. 00:28:19.823                             : en:Chapter 6
  153. 00:35:25.457                             : en:Chapter 7
  154. 00:40:31.929                             : en:Chapter 8
  155. 00:47:07.825                             : en:Chapter 9
  156. 00:53:07.017                             : en:Chapter 10
  157. 00:59:17.429                             : en:Chapter 11
  158. 01:07:22.288                             : en:Chapter 12
  159. 01:13:17.476                             : en:Chapter 13
  160. 01:18:37.296                             : en:Chapter 14
  161. 01:24:42.286                             : en:Chapter 15
  162. 01:32:54.819                             : en:Chapter 16
  163. 01:45:59.144                             : en:Chapter 17
复制代码







                                       
                                       

                                       
                                       
                                       




回复

使用道具 举报

懒得打字嘛,点击右侧快捷回复 【右侧内容,后台自定义】
您需要登录后才可以回帖 登录 | 立即加入

本版积分规则

Archiver|小黑屋| 蓝光电影网 |网站地图

Copyright © 2021 Comsenz Inc. Powered by 蓝光电影网

蓝光电影网

本站内容由用户自主分享和转载自互联网,转载目的在于传递更多信息,并不代表本网赞同其观点和对其真实性负责。

如有侵权、违反国家法律政策行为,请联系我们,我们会第一时间及时清除和处理!

举报反馈邮箱:[email protected]

快速回复 返回顶部 返回列表