找回密码

蓝光电影网

查看: 68|回复: 0

[2160p] 多哥 Togo.2019.2160p.WEBRip.DDP5.1.Atmos.x265-MZABI 15.21GB

[复制链接]
蓝光币
1084
发表于 2020-11-1 22:12:52 | 显示全部楼层 |阅读模式


◎译  名 多哥/Togo: The Untold True Story
◎片  名 Togo
◎年  代 2019
◎产  地 美国
◎类  别 剧情 / 冒险
◎语  言 英语
◎上映日期 2019-12-20(美国)
◎IMDb评分  8/10 from 32948 users
◎IMDb链接  https://www.imdb.com/title/tt5116302/
◎豆瓣评分 8.8/10 from 60229 users
◎豆瓣链接 https://movie.douban.com/subject/30271841/
◎片  长 113分钟
◎导  演 埃里克松·科尔 Ericson Core
◎编  剧 汤姆·弗林 Tom Flynn
◎主  演 威廉·达福 Willem Dafoe
       朱丽安妮·尼科尔森 Julianne Nicholson
       克里斯托弗·赫耶达尔 Christopher Heyerdahl
       理查德·多默 Richard Dormer
       阿德里安·多瓦尔 Adrien Dorval
       玛德琳·威金斯 Madeline Wickins
       麦克尔·格雷耶斯 Michael Greyeyes
       妮维·尼尔森 Nive Nielsen
       尼古拉·尼克拉斐 Nikolai Nikolaeff
       托尔比约恩·哈尔 Thorbj?rn Harr
       凯瑟琳·麦格雷戈 Catherine McGregor
       迈克尔·麦克埃尔哈顿 Michael McElhatton
       保罗·皮斯科斯基 Paul Piaskowski
       迈克尔·加斯顿 Michael Gaston
       肖恩·本森 Shaun Benson
       杰米·麦克沙恩 Jamie McShane
       巴布·米切尔 Barb Mitchell
       大卫·博特 David Boat
       杰夫·汉尼 Jeff H?nni
◎标  签 狗 | 实在事务改编 | 动物 | 动人 | 温情 | 美国 | 剧情 | 冒险
◎简  介


  聚焦1925年雪橇手和雪橇犬齐心协力为拯救阿拉斯加州诺姆市孩子的人命而奔走于血清接力路上的事务,被称为“Great Race of Mercy”。本片将登陆迪士尼自家流媒体,2019年推出。
  
  1924年年末,诺姆市一个2岁小孩抱病,医生诊断其得了扁桃体炎,这类疾病凡是不会有生命危险,但是这个小孩成为破例,接下来很多孩子都被诊断得了了扁桃体炎,有几个不幸离世,医生终极确认这类病症是白喉。那时有一种疫苗可以用来对于白喉,然后诺姆市的疫苗全数过期,新疫苗在口岸封闭前却未能投递,来年6月波罗的海才会解冻,也没有公路直通诺姆市、没有飞机,唯一运输货物的通道是邮路,但是冬季只要雪橇犬可以通行。卫生局决议利用两组雪橇犬接力运输,20个雪橇手和150只雪橇犬必须昼夜兼程,经过河流,跨过平原,穿过森林,穿越冰冻的阿拉斯加邮路。比来的疫苗地点地为南纳,间隔诺姆市1085千米,一般情况下狗拉雪橇需要费时25日,而他们只花了5天半就成功完成接力,拯救了多名孩子的人命。
  
  本片配角Togo是挪威赶雪橇高手Leonhard  Seppala(达福饰)利用的其中一只领头犬,因机智、出色的带领力和灵敏的直觉备受称赞。Seppala被委任传送这场接力中最危险的一段,从诺姆到奴拉托接收那批免疫血清,在零下30度、七级以上强风的情况下成功完成了使命。以后南极探险家Roald Amundsen为Togo颁布了一枚金牌。
  
  比约恩饰演一位接力职员,在途中变节了Seppala。
◎获奖情况
  第72届美国编剧工会奖 ?(2020)
  电视奖最好原创剧本-长篇剧集(提名)
  1. Video
  2. ID                                       : 1
  3. Format                                   : HEVC
  4. Format/Info                              : High Efficiency Video Coding
  5. Format profile                           : [email protected]@High
  6. Codec ID                                 : V_MPEGH/ISO/HEVC
  7. Duration                                 : 1 h 53 min
  8. Bit rate                                 : 18.5 Mb/s
  9. Width                                    : 3 840 pixels
  10. Height                                   : 2 160 pixels
  11. Display aspect ratio                     : 16:9
  12. Frame rate mode                          : Constant
  13. Frame rate                               : 23.976 (24000/1001/189150) FPS
  14. Color space                              : YUV
  15. Chroma subsampling                       : 4:2:0
  16. Bit depth                                : 8 bits
  17. Bits/(Pixel*Frame)                       : 0.093
  18. Stream size                              : 14.6 GiB (96%)
  19. Writing library                          : x265 3.3:[Linux][GCC 7.5.0][64 bit] 8bit+10bit+12bit
  20. Encoding settings                        : cpuid=1111039 / frame-threads=1 / wpp / no-pmode / no-pme / no-psnr / no-ssim / log-level=2 / input-csp=1 / input-res=3840x2160 / interlace=0 / total-frames=0 / level-idc=50 / high-tier=1 / uhd-bd=0 / ref=4 / no-allow-non-conformance / repeat-headers / annexb / no-aud / no-hrd / info / hash=0 / no-temporal-layers / no-open-gop / min-keyint=48 / keyint=48 / gop-lookahead=0 / bframes=7 / b-adapt=2 / b-pyramid / bframe-bias=0 / rc-lookahead=97 / lookahead-slices=0 / scenecut=0 / hist-scenecut=0 / radl=0 / no-splice / no-intra-refresh / ctu=32 / min-cu-size=8 / no-rect / no-amp / max-tu-size=16 / tu-inter-depth=2 / tu-intra-depth=2 / limit-tu=0 / rdoq-level=1 / dynamic-rd=0.00 / no-ssim-rd / signhide / no-tskip / nr-intra=0 / nr-inter=0 / no-constrained-intra / no-strong-intra-smoothing / max-merge=5 / limit-refs=0 / no-limit-modes / me=3 / subme=4 / merange=44 / temporal-mvp / no-frame-dup / no-hme / weightp / weightb / no-analyze-src-pics / deblock=0:0 / no-sao / no-sao-non-deblock / rd=4 / selective-sao=0 / no-early-skip / rskip / no-fast-intra / no-tskip-fast / no-cu-lossless / b-intra / no-splitrd-skip / rdpenalty=1 / psy-rd=1.60 / psy-rdoq=5.00 / no-rd-refine / no-lossless / cbqpoffs=0 / crqpoffs=0 / rc=abr / bitrate=20000 / qcomp=0.75 / qpstep=4 / stats-write=0 / stats-read=0 / vbv-maxrate=24000 / vbv-bufsize=40000 / vbv-init=0.9 / ipratio=1.40 / pbratio=1.30 / aq-mode=3 / aq-strength=1.00 / no-cutree / zone-count=0 / no-strict-cbr / qg-size=32 / no-rc-grain / qpmax=69 / qpmin=0 / no-const-vbv / sar=1 / overscan=0 / videoformat=5 / range=0 / colorprim=1 / transfer=1 / colormatrix=1 / chromaloc=0 / display-window=0 / cll=0,0 / min-luma=0 / max-luma=255 / log2-max-poc-lsb=8 / vui-timing-info / vui-hrd-info / slices=1 / no-opt-qp-pps / no-opt-ref-list-length-pps / no-multi-pass-opt-rps / scenecut-bias=0.00 / hist-threshold=0.01 / no-opt-cu-delta-qp / no-aq-motion / no-hdr10 / no-hdr10-opt / no-dhdr10-opt / no-idr-recovery-sei / analysis-reuse-level=0 / analysis-save-reuse-level=0 / analysis-load-reuse-level=0 / scale-factor=0 / refine-intra=0 / refine-inter=0 / refine-mv=1 / refine-ctu-distortion=0 / no-limit-sao / ctu-info=0 / no-lowpass-dct / refine-analysis-type=0 / copy-pic=1 / max-ausize-factor=1.0 / no-dynamic-refine / no-single-sei / no-hevc-aq / no-svt / no-field / qp-adaptation-range=1.00 / no-scenecut-aware-qpconformance-window-offsets / right=0 / bottom=0
  21. Default                                  : Yes
  22. Forced                                   : No
  23. Color range                              : Limited
  24. Color primaries                          : BT.709
  25. Transfer characteristics                 : BT.709
  26. Matrix coefficients                      : BT.709
  27. Audio
  28. ID                                       : 2
  29. Format                                   : E-AC-3 JOC
  30. Format/Info                              : Enhanced AC-3 with Joint Object Coding
  31. Commercial name                          : Dolby Digital Plus with Dolby Atmos
  32. Codec ID                                 : A_EAC3
  33. Duration                                 : 1 h 53 min
  34. Bit rate mode                            : Constant
  35. Bit rate                                 : 768 kb/s
  36. Channel(s)                               : 6 channels
  37. Channel layout                           : L R C LFE Ls Rs
  38. Sampling rate                            : 48.0 kHz
  39. Frame rate                               : 31.250 FPS (1536 SPF)
  40. Compression mode                         : Lossy
  41. Stream size                              : 621 MiB (4%)
  42. Title                                    : English
  43. Language                                 : English
  44. Service kind                             : Complete Main
  45. Default                                  : Yes
  46. Forced                                   : No
  47. Complexity index                         : 16
  48. Number of dynamic objects                : 15
  49. Bed channel count                        : 1 channel
  50. Bed channel configuration                : LFE
  51. Text #1
  52. ID                                       : 3
  53. Format                                   : UTF-8
  54. Codec ID                                 : S_TEXT/UTF8
  55. Codec ID/Info                            : UTF-8 Plain Text
  56. Duration                                 : 1 h 41 min
  57. Bit rate                                 : 34 b/s
  58. Count of elements                        : 886
  59. Stream size                              : 25.3 KiB (0%)
  60. Title                                    : English
  61. Language                                 : English
  62. Default                                  : No
  63. Forced                                   : No
  64. Text #2
  65. ID                                       : 4
  66. Format                                   : UTF-8
  67. Codec ID                                 : S_TEXT/UTF8
  68. Codec ID/Info                            : UTF-8 Plain Text
  69. Duration                                 : 1 h 42 min
  70. Bit rate                                 : 37 b/s
  71. Count of elements                        : 1051
  72. Stream size                              : 28.3 KiB (0%)
  73. Title                                    : English [SDH]
  74. Language                                 : English
  75. Default                                  : No
  76. Forced                                   : No
  77. Text #3
  78. ID                                       : 5
  79. Format                                   : UTF-8
  80. Codec ID                                 : S_TEXT/UTF8
  81. Codec ID/Info                            : UTF-8 Plain Text
  82. Duration                                 : 1 h 52 min
  83. Bit rate                                 : 30 b/s
  84. Count of elements                        : 892
  85. Stream size                              : 24.9 KiB (0%)
  86. Title                                    : Brazilian Portuguese
  87. Language                                 : Portuguese
  88. Default                                  : No
  89. Forced                                   : No
  90. Text #4
  91. ID                                       : 6
  92. Format                                   : UTF-8
  93. Codec ID                                 : S_TEXT/UTF8
  94. Codec ID/Info                            : UTF-8 Plain Text
  95. Duration                                 : 1 h 52 min
  96. Bit rate                                 : 30 b/s
  97. Count of elements                        : 890
  98. Stream size                              : 25.1 KiB (0%)
  99. Title                                    : Danish
  100. Language                                 : Danish
  101. Default                                  : No
  102. Forced                                   : No
  103. Text #5
  104. ID                                       : 7
  105. Format                                   : UTF-8
  106. Codec ID                                 : S_TEXT/UTF8
  107. Codec ID/Info                            : UTF-8 Plain Text
  108. Duration                                 : 1 h 52 min
  109. Bit rate                                 : 33 b/s
  110. Count of elements                        : 891
  111. Stream size                              : 27.3 KiB (0%)
  112. Title                                    : German
  113. Language                                 : German
  114. Default                                  : No
  115. Forced                                   : No
  116. Text #6
  117. ID                                       : 8
  118. Format                                   : UTF-8
  119. Codec ID                                 : S_TEXT/UTF8
  120. Codec ID/Info                            : UTF-8 Plain Text
  121. Duration                                 : 1 h 52 min
  122. Bit rate                                 : 31 b/s
  123. Count of elements                        : 892
  124. Stream size                              : 25.9 KiB (0%)
  125. Title                                    : European Spanish
  126. Language                                 : Spanish
  127. Default                                  : No
  128. Forced                                   : No
  129. Text #7
  130. ID                                       : 9
  131. Format                                   : UTF-8
  132. Codec ID                                 : S_TEXT/UTF8
  133. Codec ID/Info                            : UTF-8 Plain Text
  134. Duration                                 : 1 h 52 min
  135. Bit rate                                 : 29 b/s
  136. Count of elements                        : 891
  137. Stream size                              : 24.0 KiB (0%)
  138. Title                                    : Finnish
  139. Language                                 : Finnish
  140. Default                                  : No
  141. Forced                                   : No
  142. Text #8
  143. ID                                       : 10
  144. Format                                   : UTF-8
  145. Codec ID                                 : S_TEXT/UTF8
  146. Codec ID/Info                            : UTF-8 Plain Text
  147. Duration                                 : 1 h 52 min
  148. Bit rate                                 : 30 b/s
  149. Count of elements                        : 857
  150. Stream size                              : 25.3 KiB (0%)
  151. Title                                    : French
  152. Language                                 : French
  153. Default                                  : No
  154. Forced                                   : No
  155. Text #9
  156. ID                                       : 11
  157. Format                                   : UTF-8
  158. Codec ID                                 : S_TEXT/UTF8
  159. Codec ID/Info                            : UTF-8 Plain Text
  160. Duration                                 : 1 h 52 min
  161. Bit rate                                 : 31 b/s
  162. Count of elements                        : 891
  163. Stream size                              : 25.8 KiB (0%)
  164. Title                                    : Italian
  165. Language                                 : Italian
  166. Default                                  : No
  167. Forced                                   : No
  168. Text #10
  169. ID                                       : 12
  170. Format                                   : UTF-8
  171. Codec ID                                 : S_TEXT/UTF8
  172. Codec ID/Info                            : UTF-8 Plain Text
  173. Duration                                 : 1 h 52 min
  174. Bit rate                                 : 28 b/s
  175. Count of elements                        : 851
  176. Stream size                              : 23.0 KiB (0%)
  177. Title                                    : Dutch
  178. Language                                 : Dutch
  179. Default                                  : No
  180. Forced                                   : No
  181. Text #11
  182. ID                                       : 13
  183. Format                                   : UTF-8
  184. Codec ID                                 : S_TEXT/UTF8
  185. Codec ID/Info                            : UTF-8 Plain Text
  186. Duration                                 : 1 h 52 min
  187. Bit rate                                 : 27 b/s
  188. Count of elements                        : 891
  189. Stream size                              : 22.5 KiB (0%)
  190. Title                                    : Norwegian
  191. Language                                 : Norwegian
  192. Default                                  : No
  193. Forced                                   : No
  194. Text #12
  195. ID                                       : 14
  196. Format                                   : UTF-8
  197. Codec ID                                 : S_TEXT/UTF8
  198. Codec ID/Info                            : UTF-8 Plain Text
  199. Duration                                 : 1 h 52 min
  200. Bit rate                                 : 26 b/s
  201. Count of elements                        : 834
  202. Stream size                              : 22.1 KiB (0%)
  203. Title                                    : Polish
  204. Language                                 : Polish
  205. Default                                  : No
  206. Forced                                   : No
  207. Text #13
  208. ID                                       : 15
  209. Format                                   : UTF-8
  210. Codec ID                                 : S_TEXT/UTF8
  211. Codec ID/Info                            : UTF-8 Plain Text
  212. Duration                                 : 1 h 52 min
  213. Bit rate                                 : 32 b/s
  214. Count of elements                        : 892
  215. Stream size                              : 26.7 KiB (0%)
  216. Title                                    : Portuguese
  217. Language                                 : Portuguese
  218. Default                                  : No
  219. Forced                                   : No
  220. Text #14
  221. ID                                       : 16
  222. Format                                   : UTF-8
  223. Codec ID                                 : S_TEXT/UTF8
  224. Codec ID/Info                            : UTF-8 Plain Text
  225. Duration                                 : 1 h 52 min
  226. Bit rate                                 : 32 b/s
  227. Count of elements                        : 892
  228. Stream size                              : 26.7 KiB (0%)
  229. Title                                    : Spanish
  230. Language                                 : Spanish
  231. Default                                  : No
  232. Forced                                   : No
  233. Text #15
  234. ID                                       : 17
  235. Format                                   : UTF-8
  236. Codec ID                                 : S_TEXT/UTF8
  237. Codec ID/Info                            : UTF-8 Plain Text
  238. Duration                                 : 1 h 52 min
  239. Bit rate                                 : 30 b/s
  240. Count of elements                        : 886
  241. Stream size                              : 25.2 KiB (0%)
  242. Title                                    : Swedish
  243. Language                                 : Swedish
  244. Default                                  : No
  245. Forced                                   : No
复制代码






                                       
                                       

                                       
                                       
                                       




回复

使用道具 举报

懒得打字嘛,点击右侧快捷回复 【右侧内容,后台自定义】
您需要登录后才可以回帖 登录 | 立即加入

本版积分规则

Archiver|小黑屋| 蓝光电影网 |网站地图

Copyright © 2021 Comsenz Inc. Powered by 蓝光电影网

蓝光电影网

本站内容由用户自主分享和转载自互联网,转载目的在于传递更多信息,并不代表本网赞同其观点和对其真实性负责。

如有侵权、违反国家法律政策行为,请联系我们,我们会第一时间及时清除和处理!

举报反馈邮箱:[email protected]

快速回复 返回顶部 返回列表