找回密码

蓝光电影网

查看: 264|回复: 1

[UHD.HEVC] 夺宝奇兵2/印地安纳·琼斯与墓室 Indiana.Jones.and.the.Temple.of.Doom.1984.2160p.BluRay.REMUX.HEVC.DTS-HD.MA.TrueHD.7.1.Atmos-FGT 54.78GB

[复制链接]
蓝光币
1082
发表于 2021-6-5 18:02:00 | 显示全部楼层 |阅读模式


◎译  名 夺宝奇兵2/印地安纳·琼斯与墓室/印地安纳·琼斯之魔域奇兵/印地安纳·琼斯和魔域奇兵/夺宝奇兵2:魔域奇兵/魔域奇兵/魔宫传奇
◎片  名 Indiana Jones and the Temple of Doom
◎年  代 1984
◎产  地 美国,英国
◎类  别 行动 / 冒险
◎语  言 英语,僧伽罗语,上海话,粤语
◎上映日期 1984-05-23(美国)
◎豆瓣评分 7.8/10 from 46747 users
◎豆瓣链接 https://movie.douban.com/subject/1301434/
◎片  长 118分钟
◎导  演 史蒂文·斯皮尔伯格 Steven Spielberg
◎编  剧 威拉德·赫依克 Willard Huyck / 格洛丽亚·卡茨 Gloria Katz / 乔治·卢卡斯 George Lucas
◎主  演 哈里森·福特 Harrison Ford
       凯特·卡普肖 Kate Capshaw
       关继威 Jonathan Ke Quan
       阿莫瑞什·普瑞 Amrish Puri
       罗珊·塞斯 Roshan Seth
       乔治·卢卡斯 George Lucas
       巴斯卡尔·帕特尔 Bhasker Patel
       里克·扬 Ric Young
       丹·艾克罗伊德 Dan Aykroyd
       叶西园 David Yip
       西德尼·甘尼斯 Sidney Ganis
       菲利普·丹 Philip Tan
       乔宏 Roy Chiao
       菲利普·斯通 Philip Stone
       安东尼·鲍威尔 Anthony Powell
       帕特·罗奇 Pat Roach
       Denavaka Hamine
       弗兰克·马歇尔 Frank Marshall
       Arthur F. Repola
◎标  签 冒险 | 美国 | 行动 | 斯皮尔伯格 | 探险 | 典范 | 美国电影 | 1984
◎简  介


  中国,印第安纳琼斯博士(Harrison Ford饰)与上海黑帮老迈买卖,对方在换得努尔哈赤的骨灰后便背约弃义,欲灭琼斯之口。关键时辰,机灵小鬼豆丁(Jonathan Ke Quan饰)救下琼斯博士和无故卷进的一位女乐威莉(Kate Capshaw饰)。
  
  由于三人乘坐的飞机失事,跳机后,乘着橡皮艇,他们竟飘流到了印度的一个村子。这里河水干涸,庄稼尽毁,饥荒横行,生灵涂炭。当地人将之归罪为彭高皇宫的妖孽捣蛋,并将“突如其来”的琼斯一行视为神灵的化身,他们请求琼斯帮他们拿回被掳走的圣石和一切的小孩子。
  
  魔宫公然布满怪僻,统治者是个小屁孩,贵族们吃水蛭、巨蟒、甲虫、猴脑,皇宫内部更是机关重重,误打误撞间,他们目击到血腥的邪教献祭仪式……这一仗必定艰辛异常!
◎获奖情况
  第57届奥斯卡金像奖 ?(1985)
  最好视觉结果 丹尼斯·穆伦?/?迈克尔·J·麦卡利斯特尔?/?洛尔恩·彼得森?/?乔治·吉布斯
  最好原创配乐(提名) 约翰·威廉姆斯
  1. Video
  2. ID                                       : 1
  3. ID in the original source medium         : 4113 (0x1011)
  4. Format                                   : HEVC
  5. Format/Info                              : High Efficiency Video Coding
  6. Format profile                           : Main [email protected]@High
  7. HDR format                               : SMPTE ST 2086, HDR10 compatible
  8. Codec ID                                 : V_MPEGH/ISO/HEVC
  9. Duration                                 : 1 h 58 min
  10. Bit rate                                 : 53.6 Mb/s
  11. Width                                    : 3 840 pixels
  12. Height                                   : 2 160 pixels
  13. Display aspect ratio                     : 16:9
  14. Frame rate mode                          : Constant
  15. Frame rate                               : 23.976 (24000/1001/189150) FPS
  16. Color space                              : YUV
  17. Chroma subsampling                       : 4:2:0 (Type 2)
  18. Bit depth                                : 10 bits
  19. Bits/(Pixel*Frame)                       : 0.270
  20. Stream size                              : 44.4 GiB (81%)
  21. Language                                 : English
  22. Default                                  : No
  23. Forced                                   : No
  24. Color range                              : Limited
  25. Color primaries                          : BT.2020
  26. Transfer characteristics                 : PQ
  27. Matrix coefficients                      : BT.2020 non-constant
  28. Mastering display color primaries        : Display P3
  29. Mastering display luminance              : min: 0.0050 cd/m2, max: 4000 cd/m2
  30. Maximum Content Light Level              : 1000 cd/m2
  31. Maximum Frame-Average Light Level        : 346 cd/m2
  32. Original source medium                   : Blu-ray
  33. Audio #1
  34. ID                                       : 2
  35. ID in the original source medium         : 4352 (0x1100)
  36. Format                                   : MLP FBA 16-ch
  37. Format/Info                              : Meridian Lossless Packing FBA with 16-channel presentation
  38. Commercial name                          : Dolby TrueHD with Dolby Atmos
  39. Codec ID                                 : A_TRUEHD
  40. Duration                                 : 1 h 58 min
  41. Bit rate mode                            : Variable
  42. Bit rate                                 : 4 320 kb/s
  43. Maximum bit rate                         : 6 240 kb/s
  44. Channel(s)                               : 8 channels
  45. Channel layout                           : L R C LFE Ls Rs Lb Rb
  46. Sampling rate                            : 48.0 kHz
  47. Frame rate                               : 1 200.000 FPS (40 SPF)
  48. Bit depth                                : 24 bits
  49. Compression mode                         : Lossless
  50. Stream size                              : 3.57 GiB (7%)
  51. Title                                    : TrueHD 7.1 Atmos
  52. Language                                 : English
  53. Default                                  : Yes
  54. Forced                                   : No
  55. Original source medium                   : Blu-ray
  56. Number of dynamic objects                : 11
  57. Bed channel count                        : 1 channel
  58. Bed channel configuration                : LFE
  59. Audio #2
  60. ID                                       : 3
  61. Format                                   : DTS XLL
  62. Format/Info                              : Digital Theater Systems
  63. Commercial name                          : DTS-HD Master Audio
  64. Codec ID                                 : A_DTS
  65. Duration                                 : 1 h 58 min
  66. Bit rate mode                            : Variable
  67. Bit rate                                 : 4 477 kb/s
  68. Channel(s)                               : 8 channels
  69. Channel layout                           : C L R LFE Lb Rb Lss Rss
  70. Sampling rate                            : 48.0 kHz
  71. Frame rate                               : 93.750 FPS (512 SPF)
  72. Bit depth                                : 24 bits
  73. Compression mode                         : Lossless
  74. Stream size                              : 3.70 GiB (7%)
  75. Title                                    : DTS-HD MA 7.1
  76. Language                                 : English
  77. Default                                  : No
  78. Forced                                   : No
  79. Audio #3
  80. ID                                       : 4
  81. ID in the original source medium         : 4352 (0x1100)
  82. Format                                   : AC-3
  83. Format/Info                              : Audio Coding 3
  84. Commercial name                          : Dolby Digital
  85. Format settings                          : Dolby Surround EX
  86. Codec ID                                 : A_AC3
  87. Duration                                 : 1 h 58 min
  88. Bit rate mode                            : Constant
  89. Bit rate                                 : 640 kb/s
  90. Channel(s)                               : 6 channels
  91. Channel layout                           : L R C LFE Ls Rs
  92. Sampling rate                            : 48.0 kHz
  93. Frame rate                               : 31.250 FPS (1536 SPF)
  94. Compression mode                         : Lossy
  95. Stream size                              : 542 MiB (1%)
  96. Title                                    : DD 5.1
  97. Language                                 : English
  98. Service kind                             : Complete Main
  99. Default                                  : No
  100. Forced                                   : No
  101. Original source medium                   : Blu-ray
  102. Audio #4
  103. ID                                       : 5
  104. ID in the original source medium         : 4353 (0x1101)
  105. Format                                   : AC-3
  106. Format/Info                              : Audio Coding 3
  107. Commercial name                          : Dolby Digital
  108. Codec ID                                 : A_AC3
  109. Duration                                 : 1 h 58 min
  110. Bit rate mode                            : Constant
  111. Bit rate                                 : 640 kb/s
  112. Channel(s)                               : 6 channels
  113. Channel layout                           : L R C LFE Ls Rs
  114. Sampling rate                            : 48.0 kHz
  115. Frame rate                               : 31.250 FPS (1536 SPF)
  116. Compression mode                         : Lossy
  117. Stream size                              : 542 MiB (1%)
  118. Title                                    : DD 5.1
  119. Language                                 : Spanish
  120. Service kind                             : Complete Main
  121. Default                                  : No
  122. Forced                                   : No
  123. Original source medium                   : Blu-ray
  124. Audio #5
  125. ID                                       : 6
  126. ID in the original source medium         : 4354 (0x1102)
  127. Format                                   : AC-3
  128. Format/Info                              : Audio Coding 3
  129. Commercial name                          : Dolby Digital
  130. Codec ID                                 : A_AC3
  131. Duration                                 : 1 h 58 min
  132. Bit rate mode                            : Constant
  133. Bit rate                                 : 640 kb/s
  134. Channel(s)                               : 6 channels
  135. Channel layout                           : L R C LFE Ls Rs
  136. Sampling rate                            : 48.0 kHz
  137. Frame rate                               : 31.250 FPS (1536 SPF)
  138. Compression mode                         : Lossy
  139. Stream size                              : 542 MiB (1%)
  140. Title                                    : DD 5.1
  141. Language                                 : French
  142. Service kind                             : Complete Main
  143. Default                                  : No
  144. Forced                                   : No
  145. Original source medium                   : Blu-ray
  146. Audio #6
  147. ID                                       : 7
  148. ID in the original source medium         : 4355 (0x1103)
  149. Format                                   : AC-3
  150. Format/Info                              : Audio Coding 3
  151. Commercial name                          : Dolby Digital
  152. Codec ID                                 : A_AC3
  153. Duration                                 : 1 h 58 min
  154. Bit rate mode                            : Constant
  155. Bit rate                                 : 640 kb/s
  156. Channel(s)                               : 6 channels
  157. Channel layout                           : L R C LFE Ls Rs
  158. Sampling rate                            : 48.0 kHz
  159. Frame rate                               : 31.250 FPS (1536 SPF)
  160. Compression mode                         : Lossy
  161. Stream size                              : 542 MiB (1%)
  162. Title                                    : DD 5.1
  163. Language                                 : Italian
  164. Service kind                             : Complete Main
  165. Default                                  : No
  166. Forced                                   : No
  167. Original source medium                   : Blu-ray
  168. Audio #7
  169. ID                                       : 8
  170. ID in the original source medium         : 4356 (0x1104)
  171. Format                                   : AC-3
  172. Format/Info                              : Audio Coding 3
  173. Commercial name                          : Dolby Digital
  174. Codec ID                                 : A_AC3
  175. Duration                                 : 1 h 58 min
  176. Bit rate mode                            : Constant
  177. Bit rate                                 : 640 kb/s
  178. Channel(s)                               : 6 channels
  179. Channel layout                           : L R C LFE Ls Rs
  180. Sampling rate                            : 48.0 kHz
  181. Frame rate                               : 31.250 FPS (1536 SPF)
  182. Compression mode                         : Lossy
  183. Stream size                              : 542 MiB (1%)
  184. Title                                    : DD 5.1
  185. Language                                 : Japanese
  186. Service kind                             : Complete Main
  187. Default                                  : No
  188. Forced                                   : No
  189. Original source medium                   : Blu-ray
  190. Audio #8
  191. ID                                       : 9
  192. ID in the original source medium         : 4357 (0x1105)
  193. Format                                   : AC-3
  194. Format/Info                              : Audio Coding 3
  195. Commercial name                          : Dolby Digital
  196. Format settings                          : Dolby Surround
  197. Codec ID                                 : A_AC3
  198. Duration                                 : 1 h 58 min
  199. Bit rate mode                            : Constant
  200. Bit rate                                 : 224 kb/s
  201. Channel(s)                               : 2 channels
  202. Channel layout                           : L R
  203. Sampling rate                            : 48.0 kHz
  204. Frame rate                               : 31.250 FPS (1536 SPF)
  205. Compression mode                         : Lossy
  206. Stream size                              : 190 MiB (0%)
  207. Title                                    : DD 2.0
  208. Language                                 : Japanese
  209. Service kind                             : Complete Main
  210. Default                                  : No
  211. Forced                                   : No
  212. Original source medium                   : Blu-ray
  213. Audio #9
  214. ID                                       : 10
  215. ID in the original source medium         : 4358 (0x1106)
  216. Format                                   : AC-3
  217. Format/Info                              : Audio Coding 3
  218. Commercial name                          : Dolby Digital
  219. Format settings                          : Dolby Surround
  220. Codec ID                                 : A_AC3
  221. Duration                                 : 1 h 58 min
  222. Bit rate mode                            : Constant
  223. Bit rate                                 : 224 kb/s
  224. Channel(s)                               : 2 channels
  225. Channel layout                           : L R
  226. Sampling rate                            : 48.0 kHz
  227. Frame rate                               : 31.250 FPS (1536 SPF)
  228. Compression mode                         : Lossy
  229. Stream size                              : 190 MiB (0%)
  230. Title                                    : DD 2.0
  231. Language                                 : Russian
  232. Service kind                             : Complete Main
  233. Default                                  : No
  234. Forced                                   : No
  235. Original source medium                   : Blu-ray
  236. Text #1
  237. ID                                       : 11
  238. Format                                   : UTF-8
  239. Codec ID                                 : S_TEXT/UTF8
  240. Codec ID/Info                            : UTF-8 Plain Text
  241. Duration                                 : 1 h 52 min
  242. Bit rate                                 : 27 b/s
  243. Count of elements                        : 863
  244. Stream size                              : 22.5 KiB (0%)
  245. Title                                    : SRT
  246. Language                                 : English
  247. Default                                  : Yes
  248. Forced                                   : No
  249. Text #2
  250. ID                                       : 12
  251. ID in the original source medium         : 4768 (0x12A0)
  252. Format                                   : PGS
  253. Muxing mode                              : zlib
  254. Codec ID                                 : S_HDMV/PGS
  255. Codec ID/Info                            : Picture based subtitle format used on BDs/HD-DVDs
  256. Duration                                 : 1 h 52 min
  257. Bit rate                                 : 17.7 kb/s
  258. Count of elements                        : 1734
  259. Stream size                              : 14.2 MiB (0%)
  260. Language                                 : English
  261. Default                                  : No
  262. Forced                                   : No
  263. Original source medium                   : Blu-ray
  264. Text #3
  265. ID                                       : 13
  266. ID in the original source medium         : 4769 (0x12A1)
  267. Format                                   : PGS
  268. Muxing mode                              : zlib
  269. Codec ID                                 : S_HDMV/PGS
  270. Codec ID/Info                            : Picture based subtitle format used on BDs/HD-DVDs
  271. Duration                                 : 1 h 52 min
  272. Bit rate                                 : 22.3 kb/s
  273. Count of elements                        : 2234
  274. Stream size                              : 17.9 MiB (0%)
  275. Language                                 : English
  276. Default                                  : No
  277. Forced                                   : No
  278. Original source medium                   : Blu-ray
  279. Text #4
  280. ID                                       : 14
  281. ID in the original source medium         : 4770 (0x12A2)
  282. Format                                   : PGS
  283. Muxing mode                              : zlib
  284. Codec ID                                 : S_HDMV/PGS
  285. Codec ID/Info                            : Picture based subtitle format used on BDs/HD-DVDs
  286. Duration                                 : 1 h 57 min
  287. Bit rate                                 : 10.6 kb/s
  288. Count of elements                        : 1244
  289. Stream size                              : 8.93 MiB (0%)
  290. Language                                 : Chinese
  291. Default                                  : No
  292. Forced                                   : No
  293. Original source medium                   : Blu-ray
  294. Text #5
  295. ID                                       : 15
  296. ID in the original source medium         : 4771 (0x12A3)
  297. Format                                   : PGS
  298. Muxing mode                              : zlib
  299. Codec ID                                 : S_HDMV/PGS
  300. Codec ID/Info                            : Picture based subtitle format used on BDs/HD-DVDs
  301. Duration                                 : 1 h 55 min
  302. Bit rate                                 : 14.6 kb/s
  303. Count of elements                        : 1342
  304. Stream size                              : 12.0 MiB (0%)
  305. Language                                 : Danish
  306. Default                                  : No
  307. Forced                                   : No
  308. Original source medium                   : Blu-ray
  309. Text #6
  310. ID                                       : 16
  311. ID in the original source medium         : 4772 (0x12A4)
  312. Format                                   : PGS
  313. Muxing mode                              : zlib
  314. Codec ID                                 : S_HDMV/PGS
  315. Codec ID/Info                            : Picture based subtitle format used on BDs/HD-DVDs
  316. Duration                                 : 1 h 57 min
  317. Bit rate                                 : 15.2 kb/s
  318. Count of elements                        : 1372
  319. Stream size                              : 12.8 MiB (0%)
  320. Language                                 : Spanish
  321. Default                                  : No
  322. Forced                                   : No
  323. Original source medium                   : Blu-ray
  324. Text #7
  325. ID                                       : 17
  326. ID in the original source medium         : 4773 (0x12A5)
  327. Format                                   : PGS
  328. Muxing mode                              : zlib
  329. Codec ID                                 : S_HDMV/PGS
  330. Codec ID/Info                            : Picture based subtitle format used on BDs/HD-DVDs
  331. Duration                                 : 1 h 57 min
  332. Bit rate                                 : 13.5 kb/s
  333. Count of elements                        : 1262
  334. Stream size                              : 11.3 MiB (0%)
  335. Language                                 : French
  336. Default                                  : No
  337. Forced                                   : No
  338. Original source medium                   : Blu-ray
  339. Text #8
  340. ID                                       : 18
  341. ID in the original source medium         : 4774 (0x12A6)
  342. Format                                   : PGS
  343. Muxing mode                              : zlib
  344. Codec ID                                 : S_HDMV/PGS
  345. Codec ID/Info                            : Picture based subtitle format used on BDs/HD-DVDs
  346. Duration                                 : 1 h 57 min
  347. Bit rate                                 : 15.0 kb/s
  348. Count of elements                        : 1368
  349. Stream size                              : 12.7 MiB (0%)
  350. Language                                 : Italian
  351. Default                                  : No
  352. Forced                                   : No
  353. Original source medium                   : Blu-ray
  354. Text #9
  355. ID                                       : 19
  356. ID in the original source medium         : 4775 (0x12A7)
  357. Format                                   : PGS
  358. Muxing mode                              : zlib
  359. Codec ID                                 : S_HDMV/PGS
  360. Codec ID/Info                            : Picture based subtitle format used on BDs/HD-DVDs
  361. Duration                                 : 1 h 52 min
  362. Bit rate                                 : 12.0 kb/s
  363. Count of elements                        : 1410
  364. Stream size                              : 9.63 MiB (0%)
  365. Language                                 : Japanese
  366. Default                                  : No
  367. Forced                                   : No
  368. Original source medium                   : Blu-ray
  369. Text #10
  370. ID                                       : 20
  371. ID in the original source medium         : 4776 (0x12A8)
  372. Format                                   : PGS
  373. Muxing mode                              : zlib
  374. Codec ID                                 : S_HDMV/PGS
  375. Codec ID/Info                            : Picture based subtitle format used on BDs/HD-DVDs
  376. Duration                                 : 1 h 57 min
  377. Bit rate                                 : 11.5 kb/s
  378. Count of elements                        : 1504
  379. Stream size                              : 9.70 MiB (0%)
  380. Language                                 : Korean
  381. Default                                  : No
  382. Forced                                   : No
  383. Original source medium                   : Blu-ray
  384. Text #11
  385. ID                                       : 21
  386. ID in the original source medium         : 4777 (0x12A9)
  387. Format                                   : PGS
  388. Muxing mode                              : zlib
  389. Codec ID                                 : S_HDMV/PGS
  390. Codec ID/Info                            : Picture based subtitle format used on BDs/HD-DVDs
  391. Duration                                 : 1 h 57 min
  392. Bit rate                                 : 11.3 kb/s
  393. Count of elements                        : 1510
  394. Stream size                              : 9.49 MiB (0%)
  395. Language                                 : Chinese
  396. Default                                  : No
  397. Forced                                   : No
  398. Original source medium                   : Blu-ray
  399. Text #12
  400. ID                                       : 22
  401. ID in the original source medium         : 4778 (0x12AA)
  402. Format                                   : PGS
  403. Muxing mode                              : zlib
  404. Codec ID                                 : S_HDMV/PGS
  405. Codec ID/Info                            : Picture based subtitle format used on BDs/HD-DVDs
  406. Duration                                 : 1 h 55 min
  407. Bit rate                                 : 12.9 kb/s
  408. Count of elements                        : 1116
  409. Stream size                              : 10.7 MiB (0%)
  410. Language                                 : Dutch
  411. Default                                  : No
  412. Forced                                   : No
  413. Original source medium                   : Blu-ray
  414. Text #13
  415. ID                                       : 23
  416. ID in the original source medium         : 4779 (0x12AB)
  417. Format                                   : PGS
  418. Muxing mode                              : zlib
  419. Codec ID                                 : S_HDMV/PGS
  420. Codec ID/Info                            : Picture based subtitle format used on BDs/HD-DVDs
  421. Duration                                 : 1 h 55 min
  422. Bit rate                                 : 13.0 kb/s
  423. Count of elements                        : 1278
  424. Stream size                              : 10.7 MiB (0%)
  425. Language                                 : Norwegian
  426. Default                                  : No
  427. Forced                                   : No
  428. Original source medium                   : Blu-ray
  429. Text #14
  430. ID                                       : 24
  431. ID in the original source medium         : 4780 (0x12AC)
  432. Format                                   : PGS
  433. Muxing mode                              : zlib
  434. Codec ID                                 : S_HDMV/PGS
  435. Codec ID/Info                            : Picture based subtitle format used on BDs/HD-DVDs
  436. Duration                                 : 1 h 57 min
  437. Bit rate                                 : 14.9 kb/s
  438. Count of elements                        : 1272
  439. Stream size                              : 12.6 MiB (0%)
  440. Language                                 : Russian
  441. Default                                  : No
  442. Forced                                   : No
  443. Original source medium                   : Blu-ray
  444. Text #15
  445. ID                                       : 25
  446. ID in the original source medium         : 4781 (0x12AD)
  447. Format                                   : PGS
  448. Muxing mode                              : zlib
  449. Codec ID                                 : S_HDMV/PGS
  450. Codec ID/Info                            : Picture based subtitle format used on BDs/HD-DVDs
  451. Duration                                 : 1 h 57 min
  452. Bit rate                                 : 12.5 kb/s
  453. Count of elements                        : 1606
  454. Stream size                              : 10.6 MiB (0%)
  455. Language                                 : Chinese
  456. Default                                  : No
  457. Forced                                   : No
  458. Original source medium                   : Blu-ray
  459. Text #16
  460. ID                                       : 26
  461. ID in the original source medium         : 4782 (0x12AE)
  462. Format                                   : PGS
  463. Muxing mode                              : zlib
  464. Codec ID                                 : S_HDMV/PGS
  465. Codec ID/Info                            : Picture based subtitle format used on BDs/HD-DVDs
  466. Duration                                 : 1 h 55 min
  467. Bit rate                                 : 15.3 kb/s
  468. Count of elements                        : 1314
  469. Stream size                              : 12.6 MiB (0%)
  470. Language                                 : Finnish
  471. Default                                  : No
  472. Forced                                   : No
  473. Original source medium                   : Blu-ray
  474. Text #17
  475. ID                                       : 27
  476. ID in the original source medium         : 4783 (0x12AF)
  477. Format                                   : PGS
  478. Muxing mode                              : zlib
  479. Codec ID                                 : S_HDMV/PGS
  480. Codec ID/Info                            : Picture based subtitle format used on BDs/HD-DVDs
  481. Duration                                 : 1 h 55 min
  482. Bit rate                                 : 14.0 kb/s
  483. Count of elements                        : 1336
  484. Stream size                              : 11.5 MiB (0%)
  485. Language                                 : Swedish
  486. Default                                  : No
  487. Forced                                   : No
  488. Original source medium                   : Blu-ray
  489. Text #18
  490. ID                                       : 28
  491. ID in the original source medium         : 4784 (0x12B0)
  492. Format                                   : PGS
  493. Muxing mode                              : zlib
  494. Codec ID                                 : S_HDMV/PGS
  495. Codec ID/Info                            : Picture based subtitle format used on BDs/HD-DVDs
  496. Duration                                 : 1 h 57 min
  497. Bit rate                                 : 12.4 kb/s
  498. Count of elements                        : 1482
  499. Stream size                              : 10.4 MiB (0%)
  500. Language                                 : Thai
  501. Default                                  : No
  502. Forced                                   : No
  503. Original source medium                   : Blu-ray
  504. Text #19
  505. ID                                       : 29
  506. ID in the original source medium         : 4785 (0x12B1)
  507. Format                                   : PGS
  508. Muxing mode                              : zlib
  509. Codec ID                                 : S_HDMV/PGS
  510. Codec ID/Info                            : Picture based subtitle format used on BDs/HD-DVDs
  511. Duration                                 : 10 min 32 s
  512. Bit rate                                 : 603 b/s
  513. Count of elements                        : 6
  514. Stream size                              : 46.6 KiB (0%)
  515. Language                                 : Japanese
  516. Default                                  : No
  517. Forced                                   : No
  518. Original source medium                   : Blu-ray
  519. Menu
  520. 00:00:00.000                             : Chapter 01
  521. 00:02:54.841                             : Chapter 02
  522. 00:08:07.278                             : Chapter 03
  523. 00:10:52.693                             : Chapter 04
  524. 00:12:51.312                             : Chapter 05
  525. 00:16:00.542                             : Chapter 06
  526. 00:19:49.980                             : Chapter 07
  527. 00:26:28.503                             : Chapter 08
  528. 00:28:42.762                             : Chapter 09
  529. 00:31:49.032                             : Chapter 10
  530. 00:35:20.660                             : Chapter 11
  531. 00:38:56.751                             : Chapter 12
  532. 00:41:20.144                             : Chapter 13
  533. 00:46:24.031                             : Chapter 14
  534. 00:50:42.831                             : Chapter 15
  535. 00:52:06.456                             : Chapter 16
  536. 00:56:08.365                             : Chapter 17
  537. 00:59:56.843                             : Chapter 18
  538. 01:05:57.036                             : Chapter 19
  539. 01:09:52.021                             : Chapter 20
  540. 01:13:08.550                             : Chapter 21
  541. 01:17:08.290                             : Chapter 22
  542. 01:24:01.578                             : Chapter 23
  543. 01:27:33.206                             : Chapter 24
  544. 01:29:20.855                             : Chapter 25
  545. 01:35:03.447                             : Chapter 26
  546. 01:39:23.791                             : Chapter 27
  547. 01:41:51.271                             : Chapter 28
  548. 01:43:38.795                             : Chapter 29
  549. 01:49:57.507                             : Chapter 30
  550. 01:53:10.867                             : Chapter 31
复制代码




                                       
                                       

                                       
                                       
                                       




夺宝奇兵2/印地安纳·琼斯与墓室 Indiana.Jones.and.the.Temple.of.Doom.1984.2160p.BluRay.REMUX.HEVC.DTS-HD.MA.TrueHD.7.1.Atmos-FGT 54.78GB

Indiana.Jones.and.the.Temple.of.Doom.1984.2160p.BluRay.REMUX.HEVC.DTS-HD.MA.True.torrent

137.66 KB, 下载次数: 36, 下载积分: 蓝光币 -2

回复

使用道具 举报

蓝光币
313
发表于 2022-7-30 15:10:24 | 显示全部楼层
这个视频是MKV格式还是什么?
回复 支持 反对

使用道具 举报

懒得打字嘛,点击右侧快捷回复 【右侧内容,后台自定义】
您需要登录后才可以回帖 登录 | 立即加入

本版积分规则

Archiver|小黑屋| 蓝光电影网 |网站地图

Copyright © 2021 Comsenz Inc. Powered by 蓝光电影网

蓝光电影网

本站内容由用户自主分享和转载自互联网,转载目的在于传递更多信息,并不代表本网赞同其观点和对其真实性负责。

如有侵权、违反国家法律政策行为,请联系我们,我们会第一时间及时清除和处理!

举报反馈邮箱:[email protected]

快速回复 返回顶部 返回列表