找回密码

蓝光电影网

查看: 68|回复: 0

[2160p] 暗夜之女 Daughters.of.Darkness.1971.2160p.BluRay.x265.10bit.SDR.DTS-HD.MA.TrueHD.7.1.Atmos-SWTYBLZ 51.67GB

[复制链接]
蓝光币
1084
发表于 2020-11-1 12:36:04 | 显示全部楼层 |阅读模式


◎译  名 暗夜之女/Daughter of Darkness/黑暗
◎片  名 Les lèvres rouges
◎年  代 1971
◎产  地 比利时,法国,西德
◎类  别 可骇
◎语  言 荷兰语,英语
◎上映日期 1971-05-28
◎IMDb评分  6.6/10 from 4709 users
◎IMDb链接  https://www.imdb.com/title/tt0067690/
◎豆瓣评分 6.6/10 from 220 users
◎豆瓣链接 https://movie.douban.com/subject/1300178/
◎片  长 USA: 100 分钟(uncut version)
◎导  演 哈里·库默 Harry Kümel
◎编  剧 哈里·库默 Harry Kümel / 皮埃尔·德鲁奥 Pierre Drouot
◎主  演 德菲因·塞里格 Delphine Seyrig
       约翰·卡伦 John Karlen
       丹妮尔·维梅特 Danielle Ouimet
       安德烈娅·拉乌 Andrea Rau
       保罗·埃塞尔 Paul Esser
       Georges Jamin
       Joris Collet
       冯斯·罗德麦克斯 Fons Rademakers
◎标  签 吸血鬼 | 可骇 | 比利时 | 1970s | 法国 | 1971 | 德国 | 惊悚
◎简  介


  A 300-year-old lesbian vampire and her lover stay at a posh European resort. They seduce a sadistic husband and his beautiful wife. The husband is soon found dead, and his wife joins the two vampires.
  1. Video
  2. ID                                       : 1
  3. Format                                   : HEVC
  4. Format/Info                              : High Efficiency Video Coding
  5. Format profile                           : Main [email protected]@High
  6. Codec ID                                 : V_MPEGH/ISO/HEVC
  7. Duration                                 : 1 h 40 min
  8. Bit rate                                 : 65.6 Mb/s
  9. Width                                    : 3 600 pixels
  10. Height                                   : 2 160 pixels
  11. Display aspect ratio                     : 5:3
  12. Frame rate mode                          : Constant
  13. Frame rate                               : 23.976 (24000/1001/189150) FPS
  14. Color space                              : YUV
  15. Chroma subsampling                       : 4:2:0
  16. Bit depth                                : 10 bits
  17. Bits/(Pixel*Frame)                       : 0.352
  18. Stream size                              : 45.9 GiB (89%)
  19. Title                                    : Daughters.of.Darkness.1971.2160p.BluRay.x265.10bit.SDR.DTS-HD.MA.TrueHD.7.1.Atmos-SWTYBLZ
  20. Writing library                          : x265 3.0ed72af837053:[Windows][GCC 8.2.0][64 bit] 10bit
  21. Encoding settings                        : cpuid=1111039 / frame-threads=6 / numa-pools=40 / wpp / no-pmode / no-pme / no-psnr / no-ssim / log-level=2 / input-csp=1 / input-res=3600x2160 / interlace=0 / total-frames=144033 / level-idc=51 / high-tier=1 / uhd-bd=0 / ref=3 / no-allow-non-conformance / repeat-headers / annexb / aud / hrd / info / hash=0 / no-temporal-layers / no-open-gop / min-keyint=1 / keyint=24 / gop-lookahead=0 / bframes=4 / b-adapt=2 / b-pyramid / bframe-bias=0 / rc-lookahead=25 / lookahead-slices=4 / scenecut=40 / radl=0 / no-splice / no-intra-refresh / ctu=64 / min-cu-size=8 / no-rect / no-amp / max-tu-size=32 / tu-inter-depth=1 / tu-intra-depth=1 / limit-tu=0 / rdoq-level=0 / dynamic-rd=0.00 / no-ssim-rd / signhide / no-tskip / nr-intra=0 / nr-inter=0 / no-constrained-intra / strong-intra-smoothing / max-merge=2 / limit-refs=3 / no-limit-modes / me=1 / subme=2 / merange=57 / temporal-mvp / weightp / no-weightb / no-analyze-src-pics / deblock=0:0 / no-sao / no-sao-non-deblock / rd=3 / no-early-skip / rskip / no-fast-intra / no-tskip-fast / no-cu-lossless / no-b-intra / no-splitrd-skip / rdpenalty=0 / psy-rd=2.00 / psy-rdoq=0.00 / no-rd-refine / no-lossless / cbqpoffs=0 / crqpoffs=0 / rc=crf / crf=20.0 / qcomp=0.60 / qpstep=4 / stats-write=0 / stats-read=0 / vbv-maxrate=160000 / vbv-bufsize=160000 / vbv-init=0.9 / crf-max=0.0 / crf-min=0.0 / ipratio=1.40 / pbratio=1.30 / aq-mode=1 / aq-strength=1.00 / cutree / zone-count=0 / no-strict-cbr / qg-size=32 / no-rc-grain / qpmax=69 / qpmin=0 / no-const-vbv / sar=1 / overscan=0 / videoformat=5 / range=0 / colorprim=2 / transfer=2 / colormatrix=2 / chromaloc=0 / display-window=0 / max-cll=0,0 / min-luma=0 / max-luma=1023 / log2-max-poc-lsb=8 / vui-timing-info / vui-hrd-info / slices=1 / opt-qp-pps / opt-ref-list-length-pps / no-multi-pass-opt-rps / scenecut-bias=0.05 / no-opt-cu-delta-qp / no-aq-motion / no-hdr / no-hdr-opt / no-dhdr10-opt / no-idr-recovery-sei / analysis-reuse-level=5 / scale-factor=0 / refine-intra=0 / refine-inter=0 / refine-mv=0 / refine-ctu-distortion=0 / no-limit-sao / ctu-info=0 / no-lowpass-dct / refine-analysis-type=0 / copy-pic=1 / max-ausize-factor=1.0 / no-dynamic-refine / no-single-sei / no-hevc-aq / qp-adaptation-range=1.00
  22. Default                                  : Yes
  23. Forced                                   : No

  24. Audio #1
  25. ID                                       : 2
  26. ID in the original source medium         : 4352 (0x1100)
  27. Format                                   : MLP FBA 16-ch
  28. Format/Info                              : Meridian Lossless Packing FBA with 16-channel presentation
  29. Commercial name                          : Dolby TrueHD with Dolby Atmos
  30. Codec ID                                 : A_TRUEHD
  31. Duration                                 : 1 h 40 min
  32. Bit rate mode                            : Variable
  33. Bit rate                                 : 3 294 kb/s
  34. Maximum bit rate                         : 4 953 kb/s
  35. Channel(s)                               : 8 channels
  36. Channel layout                           : L R C LFE Ls Rs Lb Rb
  37. Sampling rate                            : 48.0 kHz
  38. Frame rate                               : 1 200.000 FPS (40 SPF)
  39. Compression mode                         : Lossless
  40. Stream size                              : 2.30 GiB (4%)
  41. Title                                    : Daughters.of.Darkness.1971.2160p.BluRay.x265.10bit.SDR.DTS-HD.MA.TrueHD.7.1.Atmos-SWTYBLZ
  42. Language                                 : English
  43. Default                                  : Yes
  44. Forced                                   : No
  45. Original source medium                   : Blu-ray
  46. Number of dynamic objects                : 11
  47. Bed channel count                        : 1 channel
  48. Bed channel configuration                : LFE

  49. Audio #2
  50. ID                                       : 3
  51. Format                                   : DTS XLL
  52. Format/Info                              : Digital Theater Systems
  53. Commercial name                          : DTS-HD Master Audio
  54. Codec ID                                 : A_DTS
  55. Duration                                 : 1 h 40 min
  56. Bit rate mode                            : Variable
  57. Bit rate                                 : 3 735 kb/s
  58. Channel(s)                               : 8 channels
  59. Channel layout                           : C L R LFE Lb Rb Lss Rss
  60. Sampling rate                            : 48.0 kHz
  61. Frame rate                               : 93.750 FPS (512 SPF)
  62. Bit depth                                : 24 bits
  63. Compression mode                         : Lossless
  64. Stream size                              : 2.61 GiB (5%)
  65. Title                                    : Daughters.of.Darkness.1971.2160p.BluRay.x265.10bit.SDR.DTS-HD.MA.TrueHD.7.1.Atmos-SWTYBLZ
  66. Language                                 : English
  67. Default                                  : No
  68. Forced                                   : No

  69. Audio #3
  70. ID                                       : 4
  71. ID in the original source medium         : 4352 (0x1100)
  72. Format                                   : AC-3
  73. Format/Info                              : Audio Coding 3
  74. Commercial name                          : Dolby Digital
  75. Codec ID                                 : A_AC3
  76. Duration                                 : 1 h 40 min
  77. Bit rate mode                            : Constant
  78. Bit rate                                 : 640 kb/s
  79. Channel(s)                               : 6 channels
  80. Channel layout                           : L R C LFE Ls Rs
  81. Sampling rate                            : 48.0 kHz
  82. Frame rate                               : 31.250 FPS (1536 SPF)
  83. Compression mode                         : Lossy
  84. Stream size                              : 458 MiB (1%)
  85. Title                                    : Daughters.of.Darkness.1971.2160p.BluRay.x265.10bit.SDR.DTS-HD.MA.TrueHD.7.1.Atmos-SWTYBLZ
  86. Language                                 : English
  87. Service kind                             : Complete Main
  88. Default                                  : No
  89. Forced                                   : No
  90. Original source medium                   : Blu-ray

  91. Text #1
  92. ID                                       : 5
  93. Format                                   : UTF-8
  94. Codec ID                                 : S_TEXT/UTF8
  95. Codec ID/Info                            : UTF-8 Plain Text
  96. Duration                                 : 1 h 36 min
  97. Bit rate                                 : 36 b/s
  98. Count of elements                        : 817
  99. Stream size                              : 25.9 KiB (0%)
  100. Title                                    : English-SRT
  101. Language                                 : English
  102. Default                                  : Yes
  103. Forced                                   : No

  104. Text #2
  105. ID                                       : 6
  106. ID in the original source medium         : 4768 (0x12A0)
  107. Format                                   : PGS
  108. Muxing mode                              : zlib
  109. Codec ID                                 : S_HDMV/PGS
  110. Codec ID/Info                            : Picture based subtitle format used on BDs/HD-DVDs
  111. Duration                                 : 1 h 37 min
  112. Bit rate                                 : 27.1 kb/s
  113. Count of elements                        : 1864
  114. Stream size                              : 18.9 MiB (0%)
  115. Title                                    : English-PGS
  116. Language                                 : English
  117. Default                                  : No
  118. Forced                                   : No
  119. Original source medium                   : Blu-ray

  120. Text #3
  121. ID                                       : 7
  122. ID in the original source medium         : 4769 (0x12A1)
  123. Format                                   : PGS
  124. Muxing mode                              : zlib
  125. Codec ID                                 : S_HDMV/PGS
  126. Codec ID/Info                            : Picture based subtitle format used on BDs/HD-DVDs
  127. Duration                                 : 1 h 37 min
  128. Bit rate                                 : 24.6 kb/s
  129. Count of elements                        : 1642
  130. Stream size                              : 17.2 MiB (0%)
  131. Title                                    : French-PGS
  132. Language                                 : French
  133. Default                                  : No
  134. Forced                                   : No
  135. Original source medium                   : Blu-ray

  136. Text #4
  137. ID                                       : 8
  138. ID in the original source medium         : 4770 (0x12A2)
  139. Format                                   : PGS
  140. Muxing mode                              : zlib
  141. Codec ID                                 : S_HDMV/PGS
  142. Codec ID/Info                            : Picture based subtitle format used on BDs/HD-DVDs
  143. Duration                                 : 1 h 37 min
  144. Bit rate                                 : 23.4 kb/s
  145. Count of elements                        : 1642
  146. Stream size                              : 16.3 MiB (0%)
  147. Title                                    : Spanish-PGS
  148. Language                                 : Spanish
  149. Default                                  : No
  150. Forced                                   : No
  151. Original source medium                   : Blu-ray

  152. Text #5
  153. ID                                       : 9
  154. ID in the original source medium         : 4771 (0x12A3)
  155. Format                                   : PGS
  156. Muxing mode                              : zlib
  157. Codec ID                                 : S_HDMV/PGS
  158. Codec ID/Info                            : Picture based subtitle format used on BDs/HD-DVDs
  159. Duration                                 : 1 h 36 min
  160. Bit rate                                 : 23.8 kb/s
  161. Count of elements                        : 1684
  162. Stream size                              : 16.4 MiB (0%)
  163. Title                                    : English-PGS
  164. Language                                 : English
  165. Default                                  : No
  166. Forced                                   : No
  167. Original source medium                   : Blu-ray

  168. Menu
  169. 00:00:00.000                             : en:Chapter 01
  170. 00:01:15.075                             : en:Chapter 02
  171. 00:06:14.374                             : en:Chapter 03
  172. 00:11:05.790                             : en:Chapter 04
  173. 00:16:01.961                             : en:Chapter 05
  174. 00:18:45.999                             : en:Chapter 06
  175. 00:22:20.213                             : en:Chapter 07
  176. 00:27:59.928                             : en:Chapter 08
  177. 00:31:05.738                             : en:Chapter 09
  178. 00:37:56.983                             : en:Chapter 10
  179. 00:41:23.481                             : en:Chapter 11
  180. 00:45:43.657                             : en:Chapter 12
  181. 00:49:11.239                             : en:Chapter 13
  182. 00:52:46.079                             : en:Chapter 14
  183. 00:58:27.504                             : en:Chapter 15
  184. 01:03:12.663                             : en:Chapter 16
  185. 01:08:13.798                             : en:Chapter 17
  186. 01:12:44.360                             : en:Chapter 18
  187. 01:17:13.629                             : en:Chapter 19
  188. 01:20:24.820                             : en:Chapter 20
  189. 01:26:49.913                             : en:Chapter 21
  190. 01:33:53.628                             : en:Chapter 22
  191. 01:36:56.477                             : en:Chapter 23
  192. 01:38:54.929                             : en:Chapter 24
复制代码



                                       
                                       

                                       
                                       
                                       




暗夜之女 Daughters.of.Darkness.1971.2160p.BluRay.x265.10bit.SDR.DTS-HD.MA.TrueHD.7.1.Atmos-SWTYBLZ 51.67GB

Daughters.of.Darkness.1971.2160p.BluRay.x265.10bit.SDR.DTS-HD.MA.TrueHD.7.1.Atmo.zip

129.99 KB, 下载次数: 0, 下载积分: 蓝光币 -2

回复

使用道具 举报

懒得打字嘛,点击右侧快捷回复 【右侧内容,后台自定义】
您需要登录后才可以回帖 登录 | 立即加入

本版积分规则

Archiver|小黑屋| 蓝光电影网 |网站地图

Copyright © 2021 Comsenz Inc. Powered by 蓝光电影网

蓝光电影网

本站内容由用户自主分享和转载自互联网,转载目的在于传递更多信息,并不代表本网赞同其观点和对其真实性负责。

如有侵权、违反国家法律政策行为,请联系我们,我们会第一时间及时清除和处理!

举报反馈邮箱:[email protected]

快速回复 返回顶部 返回列表