找回密码

蓝光电影网

查看: 920|回复: 0

[2160p] 艳舞女郎/美国舞娘 Showgirls.1995.2160p.BluRay.x264.8bit.SDR.DTS-HD.MA.5.1-SWTYBLZ 39.82GB

[复制链接]
蓝光币
1704
发表于 2020-11-1 09:55:52 | 显示全部楼层 |阅读模式


◎译  名 艳舞女郎/美国舞娘
◎片  名 Showgirls
◎年  代 1995
◎产  地 法国,美国
◎类  别 剧情 / 情色
◎语  言 英语
◎上映日期 1995-09-22
◎IMDb评分  4.9/10 from 61546 users
◎IMDb链接  https://www.imdb.com/title/tt0114436/
◎豆瓣评分 6.9/10 from 8888 users
◎豆瓣链接 https://movie.douban.com/subject/1297320/
◎片  长 128分钟
◎导  演 保罗·范霍文 Paul Verhoeven
◎编  剧 乔·埃泽特哈斯 Joe Eszterhas
◎主  演 伊丽莎白·伯克利 Elizabeth Berkley
       凯尔·麦克拉克伦 Kyle MacLachlan
       吉娜·格申 Gina Gershon
       格伦·普拉默 Glenn Plummer
       罗伯特·戴维 Robert Davi
       琳·图齐 Lin Tucci
       Timothy Scott Ralston
       阿尔·罗斯西奥 Al Ruscio
       Michael Shure
       Alexander Zale
       罗伯特·斯莫特 Teo
       凯文·亚历山大·斯蒂亚 Kevin Alexander Stea
       杜威·韦伯 Dewey Weber
       Melissa Williams
       安东尼·贝克曼 Anthony Backman
       户田惠子 Keiko Toda
       Lindsley Allen
       威廉姆·肖克利 William Shockley
       吉娜·拉维拉 Gina Ravera
       Joe Everett Michaels
       Michelle Johnston
       阿兰·拉琴斯 Alan Rachins
       马特·巴特格里亚 Matt Battaglia
       吉姆·怀斯 Jim Wise
       Richard Roraback
       卡瑞·安·因娜芭 Carrie Ann Inaba
       Rena Riffel
       杰弗·卡伦 Geoff Callan
       埃里克·里特尔 Eric Ritter
       Kristen Knittle
       Amber Herrel
       米琪杜兰 Micki Duran
       亚历山大·福克 Alexander Folk
       特雷西·迪奥里奥 Tyce Diorio
       Christopher D. Childers
       Ungela Brockman
       帕特里克·布利斯托夫 Patrick Bristow
       丽莎·博伊尔 Lisa Boyle
       Bobbie Phillips
◎标  签 情色 | 美国 | 歌舞 | 美国电影 | 剧情 | 1995 | 舞蹈 | 电影
◎简  介


  诺密(伊丽莎白·伯克利 Elizabeth Berkley 饰)是一位性感标致的女郎,年轻的她来到拉斯维加斯淘金,希望在这里能找到令她安身的工作。没想到,刚到此地,便被小混混骗走了行李,身无分文的她碰见了化装师克里斯特(吉娜·格申 Gina Gershon 饰),两人一见仍旧结下了深厚的友谊。诺密发现,想在拉斯维加斯获得一个饭碗实在是太难了,酷爱舞蹈的她最初决议加入当地最著名的艳舞团队。经过层层提拔,诺密获得了她的脚色,而一旦起头涉入这个复杂的声色天下中,她沦亡的速度就再也不会停止。原本自负自重的诺密,居然也起头为了向上成长而出售自己的精神。
  
  诺密越来越著名,但她和克里斯特的间隔也越来越远。为了填补这段友谊,诺密放置了克里斯特和她的偶像歌手碰头,没想到看似偶像实则禽兽,克里斯特惨遭侮辱住进医院,也击碎了诺密关于名声和金钱的最初的幻觉。
  1. Video
  2. ID                                       : 1
  3. Format                                   : AVC
  4. Format/Info                              : Advanced Video Codec
  5. Format profile                           : [email protected]
  6. Format settings                          : CABAC / 5 Ref Frames
  7. Format settings, CABAC                   : Yes
  8. Format settings, Reference frames        : 5 frames
  9. Codec ID                                 : V_MPEG4/ISO/AVC
  10. Duration                                 : 2 h 11 min
  11. Bit rate                                 : 40.4 Mb/s
  12. Width                                    : 3 840 pixels
  13. Height                                   : 1 632 pixels
  14. Display aspect ratio                     : 2.35:1
  15. Frame rate mode                          : Constant
  16. Frame rate                               : 24.000 FPS
  17. Color space                              : YUV
  18. Chroma subsampling                       : 4:2:0
  19. Bit depth                                : 8 bits
  20. Scan type                                : Progressive
  21. Bits/(Pixel*Frame)                       : 0.269
  22. Stream size                              : 37.1 GiB (93%)
  23. Title                                    : Showgirls.1995.2160p.BluRay.x264.8bit.SDR.DTS-HD.MA.5.1-SWTYBLZ
  24. Writing library                          : x264 core 157 r2935 545de2f
  25. Encoding settings                        : cabac=1 / ref=5 / deblock=1:-1:-1 / analyse=0x3:0x113 / me=umh / subme=10 / psy=1 / psy_rd=1.00:0.15 / mixed_ref=1 / me_range=48 / chroma_me=1 / trellis=2 / 8x8dct=1 / cqm=0 / deadzone=21,11 / fast_pskip=1 / chroma_qp_offset=-3 / threads=48 / lookahead_threads=4 / sliced_threads=0 / nr=0 / decimate=0 / interlaced=0 / bluray_compat=0 / constrained_intra=0 / bframes=3 / b_pyramid=2 / b_adapt=2 / b_bias=0 / direct=3 / weightb=1 / open_gop=0 / weightp=2 / keyint=250 / keyint_min=24 / scenecut=40 / intra_refresh=0 / rc_lookahead=50 / rc=crf / mbtree=1 / crf=21.0 / qcomp=0.60 / qpmin=0 / qpmax=69 / qpstep=4 / ip_ratio=1.40 / aq=1:1.00
  26. Default                                  : Yes
  27. Forced                                   : No
  28. Audio #1
  29. ID                                       : 2
  30. ID in the original source medium         : 4353 (0x1101)
  31. Format                                   : DTS XLL
  32. Format/Info                              : Digital Theater Systems
  33. Commercial name                          : DTS-HD Master Audio
  34. Codec ID                                 : A_DTS
  35. Duration                                 : 2 h 11 min
  36. Bit rate mode                            : Variable
  37. Bit rate                                 : 2 157 kb/s
  38. Channel(s)                               : 6 channels
  39. Channel layout                           : C L R Ls Rs LFE
  40. Sampling rate                            : 48.0 kHz
  41. Frame rate                               : 93.750 FPS (512 SPF)
  42. Bit depth                                : 16 bits
  43. Compression mode                         : Lossless
  44. Stream size                              : 1.98 GiB (5%)
  45. Title                                    : Showgirls.1995.2160p.BluRay.x264.8bit.SDR.DTS-HD.MA.5.1-SWTYBLZ
  46. Language                                 : English
  47. Default                                  : Yes
  48. Forced                                   : No
  49. Original source medium                   : Blu-ray
  50. Audio #2
  51. ID                                       : 3
  52. Format                                   : AC-3
  53. Format/Info                              : Audio Coding 3
  54. Commercial name                          : Dolby Digital
  55. Codec ID                                 : A_AC3
  56. Duration                                 : 2 h 11 min
  57. Bit rate mode                            : Constant
  58. Bit rate                                 : 640 kb/s
  59. Channel(s)                               : 6 channels
  60. Channel layout                           : L R C LFE Ls Rs
  61. Sampling rate                            : 48.0 kHz
  62. Frame rate                               : 31.250 FPS (1536 SPF)
  63. Compression mode                         : Lossy
  64. Stream size                              : 601 MiB (1%)
  65. Title                                    : Showgirls.1995.2160p.BluRay.x264.8bit.SDR.DTS-HD.MA.5.1-SWTYBLZ
  66. Language                                 : English
  67. Service kind                             : Complete Main
  68. Default                                  : No
  69. Forced                                   : No
  70. Text #1
  71. ID                                       : 4
  72. Format                                   : UTF-8
  73. Codec ID                                 : S_TEXT/UTF8
  74. Codec ID/Info                            : UTF-8 Plain Text
  75. Duration                                 : 2 h 1 min
  76. Bit rate                                 : 48 b/s
  77. Count of elements                        : 1094
  78. Stream size                              : 42.8 KiB (0%)
  79. Title                                    : English-SRT
  80. Language                                 : English
  81. Default                                  : Yes
  82. Forced                                   : No
  83. Text #2
  84. ID                                       : 5
  85. ID in the original source medium         : 4768 (0x12A0)
  86. Format                                   : PGS
  87. Muxing mode                              : zlib
  88. Codec ID                                 : S_HDMV/PGS
  89. Codec ID/Info                            : Picture based subtitle format used on BDs/HD-DVDs
  90. Duration                                 : 2 h 2 min
  91. Bit rate                                 : 44.2 kb/s
  92. Count of elements                        : 2354
  93. Stream size                              : 38.8 MiB (0%)
  94. Title                                    : German-PGS
  95. Language                                 : German
  96. Default                                  : No
  97. Forced                                   : No
  98. Original source medium                   : Blu-ray
  99. Text #3
  100. ID                                       : 6
  101. ID in the original source medium         : 4769 (0x12A1)
  102. Format                                   : PGS
  103. Muxing mode                              : zlib
  104. Codec ID                                 : S_HDMV/PGS
  105. Codec ID/Info                            : Picture based subtitle format used on BDs/HD-DVDs
  106. Duration                                 : 2 h 1 min
  107. Bit rate                                 : 39.6 kb/s
  108. Count of elements                        : 2196
  109. Stream size                              : 34.5 MiB (0%)
  110. Title                                    : English_PGS
  111. Language                                 : English
  112. Default                                  : No
  113. Forced                                   : No
  114. Original source medium                   : Blu-ray
  115. Menu
  116. 00:00:00.000                             : en:Chapter 01
  117. 00:08:10.375                             : en:Chapter 02
  118. 00:16:02.250                             : en:Chapter 03
  119. 00:22:40.541                             : en:Chapter 04
  120. 00:32:46.375                             : en:Chapter 05
  121. 00:37:56.916                             : en:Chapter 06
  122. 00:43:51.958                             : en:Chapter 07
  123. 00:49:27.291                             : en:Chapter 08
  124. 00:55:49.083                             : en:Chapter 09
  125. 01:04:44.458                             : en:Chapter 10
  126. 01:11:32.291                             : en:Chapter 11
  127. 01:18:10.041                             : en:Chapter 12
  128. 01:23:01.625                             : en:Chapter 13
  129. 01:28:11.916                             : en:Chapter 14
  130. 01:34:15.541                             : en:Chapter 15
  131. 01:45:27.250                             : en:Chapter 16
  132. 01:55:38.916                             : en:Chapter 17
  133. 02:03:30.291                             : en:Chapter 18
复制代码







                                       
                                       

                                       
                                       
                                       




回复

使用道具 举报

懒得打字嘛,点击右侧快捷回复 【右侧内容,后台自定义】
您需要登录后才可以回帖 登录 | 立即加入

本版积分规则

Archiver|小黑屋| 蓝光电影网 |网站地图

Copyright © 2021 Comsenz Inc. Powered by 蓝光电影网

蓝光电影网

本站内容由用户自主分享和转载自互联网,转载目的在于传递更多信息,并不代表本网赞同其观点和对其真实性负责。

如有侵权、违反国家法律政策行为,请联系我们,我们会第一时间及时清除和处理!

举报反馈邮箱:4k1080.com@gmail.com

快速回复 返回顶部 返回列表