找回密码

查看: 1034|回复: 0

[其他] 熔炉之火 The.Furnace.2020.1080p.WEB-DL.DD5.1.H264-FGT 4.03GB

[复制链接]
蓝光币
2048
发表于 2021-1-26 08:30:54 | 显示全部楼层 |阅读模式


◎译  名 熔炉之火
◎片  名 The Furnace
◎年  代 2020
◎产  地 澳大利亚
◎类  别 历史 / 西部
◎语  言 英语
◎上映日期 2020-09-04(威尼斯电影节)
◎IMDb评分  4.7/10 from 1190 users
◎IMDb链接  https://www.imdb.com/title/tt10964530/
◎豆瓣评分 /10 from 0 users
◎豆瓣链接 https://movie.douban.com/subject/35159395/
◎导  演 Roderick MacKay
◎编  剧 Roderick MacKay
◎主  演 杰·瑞恩 Jay Ryan
       大卫·文翰 David Wenham
       艾瑞克·托马森 Erik Thomson
◎标  签 澳大利亚 | 威尼斯 | 剧情 | 2020 | 电影 | 行动 | P-VeniceB入围逆流/地平线
◎简  介


  To escape the outback, a young Afghan cameleer falls in with a mysterious bushman on the run with stolen Crown gold.
◎获奖情况
  第77届威尼斯电影节 ?(2020)
  地平线单元奖最好影片(提名) RoderickMacKay
  1. Video
  2. ID                                       : 1
  3. Format                                   : AVC
  4. Format/Info                              : Advanced Video Codec
  5. Format profile                           : [email protected]
  6. Format settings                          : CABAC / 5 Ref Frames
  7. Format settings, CABAC                   : Yes
  8. Format settings, Reference frames        : 5 frames
  9. Codec ID                                 : V_MPEG4/ISO/AVC
  10. Duration                                 : 1 h 56 min
  11. Bit rate                                 : 4 560 kb/s
  12. Width                                    : 1 916 pixels
  13. Height                                   : 800 pixels
  14. Display aspect ratio                     : 2.40:1
  15. Frame rate mode                          : Constant
  16. Frame rate                               : 24.000 FPS
  17. Color space                              : YUV
  18. Chroma subsampling                       : 4:2:0
  19. Bit depth                                : 8 bits
  20. Scan type                                : Progressive
  21. Bits/(Pixel*Frame)                       : 0.124
  22. Stream size                              : 3.71 GiB (92%)
  23. Language                                 : English
  24. Default                                  : Yes
  25. Forced                                   : No
  26. Color range                              : Limited
  27. Color primaries                          : BT.709
  28. Transfer characteristics                 : BT.709
  29. Matrix coefficients                      : BT.709
  30. Audio
  31. ID                                       : 2
  32. Format                                   : AC-3
  33. Format/Info                              : Audio Coding 3
  34. Commercial name                          : Dolby Digital
  35. Codec ID                                 : A_AC3
  36. Duration                                 : 1 h 56 min
  37. Bit rate mode                            : Constant
  38. Bit rate                                 : 384 kb/s
  39. Channel(s)                               : 6 channels
  40. Channel layout                           : L R C LFE Ls Rs
  41. Sampling rate                            : 48.0 kHz
  42. Frame rate                               : 31.250 FPS (1536 SPF)
  43. Compression mode                         : Lossy
  44. Stream size                              : 320 MiB (8%)
  45. Title                                    : DD 5.1
  46. Language                                 : English
  47. Service kind                             : Complete Main
  48. Default                                  : Yes
  49. Forced                                   : No
  50. Text
  51. ID                                       : 3
  52. Format                                   : UTF-8
  53. Codec ID                                 : S_TEXT/UTF8
  54. Codec ID/Info                            : UTF-8 Plain Text
  55. Duration                                 : 53 min 2 s
  56. Bit rate                                 : 7 b/s
  57. Count of elements                        : 115
  58. Stream size                              : 2.90 KiB (0%)
  59. Title                                    : FORCED
  60. Language                                 : English
  61. Default                                  : Yes
  62. Forced                                   : No
复制代码



                                       
                                       

                                       
                                       
                                       




回复

使用道具 举报

懒得打字嘛,点击右侧快捷回复 【右侧内容,后台自定义】
您需要登录后才可以回帖 登录 | 立即加入

本版积分规则

Archiver| |网站地图

Copyright © 2024 Comsenz Inc. Powered by 蓝光电影网

本站内容由用户自主分享和转载自互联网,转载目的在于传递更多信息,并不代表本网赞同其观点和对其真实性负责。

如有侵权、违反国家法律政策行为,请联系我们,我们会第一时间及时清除和处理!

举报反馈邮箱:4k1080.com@gmail.com

快速回复 返回顶部 返回列表