找回密码

查看: 1151|回复: 0

[动作] 第七星之旅/第七星球之旅 Journey.to.the.Seventh.Planet.1962.1080p.BluRay.x264-SADPANDA 6.55GB

[复制链接]
蓝光币
2039
发表于 2019-7-29 16:37:48 | 显示全部楼层 |阅读模式


◎译  名 第七星之旅 / 第七星球之旅
◎片  名 Journey to the Seventh Planet
◎年  代 1962
◎产  地 丹麦 / 美国
◎类  别 行动 / 科幻 / 可骇 / 奇异 / 冒险
◎语  言 丹麦语 / 英语
◎上映日期 1962-03-10
◎IMDb评分  4.8/10 from 1336 users
◎IMDb链接  http://www.imdb.com/title/tt0056127
◎豆瓣评分 0/10 from 0 users
◎豆瓣链接 https://movie.douban.com/subject/2269727/
◎片  长 77 分钟
◎导  演 Sidney W. Pink
◎主  演 约翰·艾加尔 John Agar
      Carl Ottosen
      Ove Sprog?e

◎标  签 美国 | 科幻 | 60 | 长片 | 红壳 | 移动 | 悚怖特区 | 剧情
◎简  介  
  在未来的2001年,结合国派出了一支由科学组成的星际探险队伍去摸索天王星,这支星际探险发现了一颗与地球类似的星球,处处都是动丹麦人的小村落,处处都是沉迷肉欲的女人,在乌托邦式的虚饰下面是一个如此强大,凶暴的气力,它操纵探险队的记忆对于他们,夺取他们内的宇宙飞船返回地球--征服他!
  1. Video
  2. ID                                       : 1
  3. Format                                   : AVC
  4. Format/Info                              : Advanced Video Codec
  5. Format profile                           : [email protected]
  6. Format settings                          : CABAC / 4 Ref Frames
  7. Format settings, CABAC                   : Yes
  8. Format settings, Reference frames        : 4 frames
  9. Codec ID                                 : V_MPEG4/ISO/AVC
  10. Duration                                 : 1 h 16 min
  11. Bit rate                                 : 11.9 Mb/s
  12. Width                                    : 1 808 pixels
  13. Height                                   : 1 080 pixels
  14. Display aspect ratio                     : 5:3
  15. Frame rate mode                          : Constant
  16. Frame rate                               : 23.976 (24000/1001) FPS
  17. Color space                              : YUV
  18. Chroma subsampling                       : 4:2:0
  19. Bit depth                                : 8 bits
  20. Scan type                                : Progressive
  21. Bits/(Pixel*Frame)                       : 0.254
  22. Stream size                              : 6.36 GiB (97%)
  23. Writing library                          : x264 core 148 r2692 64f4e24
  24. Encoding settings                        : cabac=1 / ref=4 / deblock=1:-3:-3 / analyse=0x3:0x113 / me=umh / subme=8 / psy=1 / psy_rd=1.00:0.25 / mixed_ref=1 / me_range=24 / chroma_me=1 / trellis=1 / 8x8dct=1 / cqm=0 / deadzone=21,11 / fast_pskip=1 / chroma_qp_offset=-4 / threads=24 / lookahead_threads=4 / sliced_threads=0 / nr=0 / decimate=1 / interlaced=0 / bluray_compat=0 / constrained_intra=0 / bframes=3 / b_pyramid=2 / b_adapt=2 / b_bias=0 / direct=3 / weightb=1 / open_gop=0 / weightp=2 / keyint=240 / keyint_min=24 / scenecut=40 / intra_refresh=0 / rc_lookahead=50 / rc=2pass / mbtree=1 / bitrate=11876 / ratetol=1.0 / qcomp=0.60 / qpmin=0 / qpmax=69 / qpstep=4 / cplxblur=20.0 / qblur=0.5 / ip_ratio=1.40 / aq=1:0.50
  25. Default                                  : Yes
  26. Forced                                   : No
  27. Audio
  28. ID                                       : 2
  29. Format                                   : FLAC
  30. Format/Info                              : Free Lossless Audio Codec
  31. Codec ID                                 : A_FLAC
  32. Duration                                 : 1 h 16 min
  33. Bit rate mode                            : Variable
  34. Bit rate                                 : 348 kb/s
  35. Channel(s)                               : 2 channels
  36. Channel layout                           : L R
  37. Sampling rate                            : 48.0 kHz
  38. Frame rate                               : 11.719 FPS (4096 SPF)
  39. Bit depth                                : 16 bits
  40. Compression mode                         : Lossless
  41. Stream size                              : 191 MiB (3%)
  42. Writing library                          : libFLAC 1.2.1 (UTC 2007-09-17)
  43. Language                                 : English
  44. Default                                  : Yes
  45. Forced                                   : No
  46. Menu
  47. 00:00:00.000                             : en:00:00:00.000
  48. 00:11:16.259                             : en:00:11:16.259
  49. 00:22:35.271                             : en:00:22:35.271
  50. 00:33:36.056                             : en:00:33:36.056
  51. 00:43:05.541                             : en:00:43:05.541
  52. 00:55:36.917                             : en:00:55:36.917
  53. 01:08:36.029                             : en:01:08:36.029
  54. 01:17:11.121                             : en:01:17:11.121
复制代码






                                       
                                       

                                       
                                       
                                       




回复

使用道具 举报

懒得打字嘛,点击右侧快捷回复 【右侧内容,后台自定义】
您需要登录后才可以回帖 登录 | 立即加入

本版积分规则

Archiver| |网站地图

Copyright © 2024 Comsenz Inc. Powered by 蓝光电影网

本站内容由用户自主分享和转载自互联网,转载目的在于传递更多信息,并不代表本网赞同其观点和对其真实性负责。

如有侵权、违反国家法律政策行为,请联系我们,我们会第一时间及时清除和处理!

举报反馈邮箱:4k1080.com@gmail.com

快速回复 返回顶部 返回列表