找回密码

查看: 1698|回复: 0

[剧情] 纽约船坞 The.Docks.of.New.York.1928.1080p.BluRay.REMUX.AVC.LPCM.2.0-FGT 21.24GB

[复制链接]
蓝光币
2039
发表于 2019-10-11 00:14:07 | 显示全部楼层 |阅读模式


◎译  名 纽约船坞
◎片  名 The Docks of New York
◎年  代 1928
◎产  地 美国
◎类  别 剧情 / 恋爱 / 犯罪
◎语  言 英语
◎上映日期 1928-09-29
◎IMDb评分  7.5/10 from 3556 users
◎IMDb链接  http://www.imdb.com/title/tt0018839
◎豆瓣评分 7.7/10 from 324 users
◎豆瓣链接 https://movie.douban.com/subject/1855285/
◎片  长 76分钟
◎导  演 约瑟夫·冯·斯坦伯格 Josef von Sternberg
◎编  剧 朱尔斯·福瑟曼 Jules Furthman / Julian Johnson / John Monk Saunders
◎主  演 乔治·班克罗夫特 George Bancroft
       贝蒂·康姆逊 Betty Compson
       奥尔加·巴古拉诺娃 Olga Baclanova

◎标  签 美国 | 默片 | 约瑟夫·冯·斯登堡 | 1928 | 1920s | CC | JosefvonSternberg | Josef_von_Sternberg
◎简  介  
  The ship on which Bill Roberts is a stoker has just put into port, giving the crew one night ashore. The ship's bad-tempered third engineer orders the stokers to clean up, while the engineer heads for a dockside bar, where he has a confrontation with the wife he had abandoned. Then, as Bill himself goes ashore, he sees a young woman attempt to drown herself. Bill dives in, saves her, and then, assisted by the engineer's wife, sees that she is cared for. Bill and the rescued woman begin to enjoy one another's company, but they must contend with the malice of the engineer, as well as a number of other complications.
  1. Video
  2. ID                                       : 1
  3. Format                                   : AVC
  4. Format/Info                              : Advanced Video Codec
  5. Format profile                           : [email protected]
  6. Format settings                          : CABAC / 4 Ref Frames
  7. Format settings, CABAC                   : Yes
  8. Format settings, Reference frames        : 4 frames
  9. Format settings, GOP                     : M=3, N=12
  10. Codec ID                                 : V_MPEG4/ISO/AVC
  11. Duration                                 : 1 h 15 min
  12. Bit rate mode                            : Variable
  13. Bit rate                                 : 35.6 Mb/s
  14. Maximum bit rate                         : 37.0 Mb/s
  15. Width                                    : 1 920 pixels
  16. Height                                   : 1 080 pixels
  17. Display aspect ratio                     : 16:9
  18. Frame rate mode                          : Constant
  19. Frame rate                               : 23.976 (24000/1001) FPS
  20. Color space                              : YUV
  21. Chroma subsampling                       : 4:2:0
  22. Bit depth                                : 8 bits
  23. Scan type                                : Progressive
  24. Bits/(Pixel*Frame)                       : 0.716
  25. Stream size                              : 18.8 GiB (89%)
  26. Title                                    : The.Docks.of.New.York.1928.1080p.BluRay.REMUX.AVC.LPCM.2.0-FGT
  27. Language                                 : English
  28. Default                                  : No
  29. Forced                                   : No
  30. Audio #1
  31. ID                                       : 2
  32. Format                                   : PCM
  33. Format settings                          : Little / Signed
  34. Codec ID                                 : A_PCM/INT/LIT
  35. Duration                                 : 1 h 15 min
  36. Bit rate mode                            : Constant
  37. Bit rate                                 : 2 304 kb/s
  38. Channel(s)                               : 2 channels
  39. Sampling rate                            : 48.0 kHz
  40. Frame rate                               : 30.000 FPS (1600 SPF)
  41. Bit depth                                : 24 bits
  42. Stream size                              : 1.22 GiB (6%)
  43. Title                                    : The.Docks.of.New.York.1928.1080p.BluRay.REMUX.AVC.LPCM.2.0-FGT
  44. Language                                 : English
  45. Default                                  : Yes
  46. Forced                                   : No
  47. Audio #2
  48. ID                                       : 3
  49. Format                                   : PCM
  50. Format settings                          : Little / Signed
  51. Codec ID                                 : A_PCM/INT/LIT
  52. Duration                                 : 1 h 15 min
  53. Bit rate mode                            : Constant
  54. Bit rate                                 : 2 304 kb/s
  55. Channel(s)                               : 2 channels
  56. Sampling rate                            : 48.0 kHz
  57. Frame rate                               : 30.000 FPS (1600 SPF)
  58. Bit depth                                : 24 bits
  59. Stream size                              : 1.22 GiB (6%)
  60. Title                                    : The.Docks.of.New.York.1928.1080p.BluRay.REMUX.AVC.LPCM.2.0-FGT
  61. Language                                 : English
  62. Default                                  : No
  63. Forced                                   : No
  64. Menu
  65. 00:00:00.000                             : en:Chapter 01
  66. 00:01:12.155                             : en:Chapter 02
  67. 00:05:49.140                             : en:Chapter 03
  68. 00:09:11.884                             : en:Chapter 04
  69. 00:14:42.840                             : en:Chapter 05
  70. 00:18:58.929                             : en:Chapter 06
  71. 00:23:12.516                             : en:Chapter 07
  72. 00:28:23.535                             : en:Chapter 08
  73. 00:35:19.700                             : en:Chapter 09
  74. 00:46:42.466                             : en:Chapter 10
  75. 00:50:03.750                             : en:Chapter 11
  76. 00:55:35.749                             : en:Chapter 12
  77. 01:00:21.701                             : en:Chapter 13
  78. 01:06:48.295                             : en:Chapter 14
  79. 01:10:23.677                             : en:Chapter 15
复制代码






                                       
                                       

                                       
                                       
                                       




回复

使用道具 举报

懒得打字嘛,点击右侧快捷回复 【右侧内容,后台自定义】
您需要登录后才可以回帖 登录 | 立即加入

本版积分规则

Archiver| |网站地图

Copyright © 2024 Comsenz Inc. Powered by 蓝光电影网

本站内容由用户自主分享和转载自互联网,转载目的在于传递更多信息,并不代表本网赞同其观点和对其真实性负责。

如有侵权、违反国家法律政策行为,请联系我们,我们会第一时间及时清除和处理!

举报反馈邮箱:4k1080.com@gmail.com

快速回复 返回顶部 返回列表