找回密码

查看: 1149|回复: 0

[喜剧] 女士应倾听/电话姻缘 Ladies.Should.Listen.1934.1080p.BluRay.x264.DTS-FGT 5.51GB

[复制链接]
蓝光币
2039
发表于 2020-11-28 09:32:06 | 显示全部楼层 |阅读模式


◎译  名 密斯应倾听/电话姻缘(港)
◎片  名 Ladies Should Listen
◎年  代 1934
◎产  地 美国
◎类  别 笑剧
◎语  言 英语
◎上映日期 1934-08-10(美国)
◎IMDb评分  6.3/10 from 276 users
◎IMDb链接  https://www.imdb.com/title/tt0025363/
◎豆瓣评分 /10 from 0 users
◎豆瓣链接 https://movie.douban.com/subject/3607786/
◎片  长 62分钟
◎导  演 弗兰克·塔特尔 Frank Tuttle
◎编  剧 克劳德·比尼恩 Claude Binyon / 盖伊·博尔顿 Guy Bolton / 弗兰克·巴特勒 Frank Butler / Alfred Savoir
◎主  演 加里·格兰特 Cary Grant
       弗朗西斯·德雷克 Frances Drake
       爱德华·艾沃瑞特·霍顿 Edward Everett Horton
       妮迪亚·威斯特曼 Nydia Westman
       罗西塔·莫雷诺 Rosita Moreno
       Joseph North
       Rafael Storm
       乔治·巴比尔 George Barbier
       查尔斯·阿恩特 Charles Arnt
       安·谢里登 Ann Sheridan
       Charles Ray
◎标  签 爱德华·艾沃瑞特·霍顿 | 1934 | D5 | Cary_Grant
◎简  介


  暂无相关剧情先容
  1. Video
  2. ID                                       : 1
  3. Format                                   : AVC
  4. Format/Info                              : Advanced Video Codec
  5. Format profile                           : [email protected]
  6. Format settings                          : CABAC / 4 Ref Frames
  7. Format settings, CABAC                   : Yes
  8. Format settings, Reference frames        : 4 frames
  9. Codec ID                                 : V_MPEG4/ISO/AVC
  10. Duration                                 : 1 h 0 min
  11. Bit rate                                 : 11.5 Mb/s
  12. Width                                    : 1 480 pixels
  13. Height                                   : 1 080 pixels
  14. Display aspect ratio                     : 1.370
  15. Frame rate mode                          : Constant
  16. Frame rate                               : 23.976 (24000/1001/189150) FPS
  17. Color space                              : YUV
  18. Chroma subsampling                       : 4:2:0
  19. Bit depth                                : 8 bits
  20. Scan type                                : Progressive
  21. Bits/(Pixel*Frame)                       : 0.300
  22. Stream size                              : 4.87 GiB (88%)
  23. Title                                    : Ladies.Should.Listen.1934.1080p.BluRay.x264.DTS-FGT
  24. Writing library                          : x264 core 148 r2748 97eaef2
  25. Encoding settings                        : cabac=1 / ref=4 / deblock=1:-2:-2 / analyse=0x3:0x113 / me=umh / subme=9 / psy=1 / psy_rd=1.00:0.15 / mixed_ref=1 / me_range=16 / chroma_me=1 / trellis=2 / 8x8dct=1 / cqm=0 / deadzone=21,11 / fast_pskip=1 / chroma_qp_offset=-3 / threads=24 / lookahead_threads=3 / sliced_threads=0 / nr=0 / decimate=1 / interlaced=0 / bluray_compat=0 / constrained_intra=0 / bframes=3 / b_pyramid=2 / b_adapt=1 / b_bias=0 / direct=3 / weightb=1 / open_gop=0 / weightp=2 / keyint=250 / keyint_min=25 / scenecut=40 / intra_refresh=0 / rc_lookahead=50 / rc=2pass / mbtree=1 / bitrate=11500 / ratetol=1.0 / qcomp=0.60 / qpmin=0 / qpmax=69 / qpstep=4 / cplxblur=20.0 / qblur=0.5 / vbv_maxrate=31250 / vbv_bufsize=31250 / nal_hrd=none / filler=0 / ip_ratio=1.40 / aq=1:1.00
  26. Language                                 : English
  27. Default                                  : Yes
  28. Forced                                   : No
  29. Audio
  30. ID                                       : 2
  31. Format                                   : DTS
  32. Format/Info                              : Digital Theater Systems
  33. Codec ID                                 : A_DTS
  34. Duration                                 : 1 h 0 min
  35. Bit rate mode                            : Constant
  36. Bit rate                                 : 1 509 kb/s
  37. Channel(s)                               : 2 channels
  38. Channel layout                           : L R
  39. Sampling rate                            : 48.0 kHz
  40. Frame rate                               : 93.750 FPS (512 SPF)
  41. Bit depth                                : 16 bits
  42. Compression mode                         : Lossy
  43. Stream size                              : 654 MiB (12%)
  44. Title                                    : Ladies.Should.Listen.1934.1080p.BluRay.x264.DTS-FGT
  45. Language                                 : English
  46. Default                                  : Yes
  47. Forced                                   : No
  48. Text
  49. ID                                       : 3
  50. Format                                   : UTF-8
  51. Codec ID                                 : S_TEXT/UTF8
  52. Codec ID/Info                            : UTF-8 Plain Text
  53. Duration                                 : 57 min 34 s
  54. Bit rate                                 : 63 b/s
  55. Count of elements                        : 916
  56. Stream size                              : 27.0 KiB (0%)
  57. Language                                 : English
  58. Default                                  : Yes
  59. Forced                                   : No
  60. Menu
  61. 00:00:00.000                             : en:Chapter 1
  62. 00:07:06.719                             : en:Chapter 2
  63. 00:15:12.996                             : en:Chapter 3
  64. 00:25:34.743                             : en:Chapter 4
  65. 00:31:11.913                             : en:Chapter 5
  66. 00:35:32.548                             : en:Chapter 6
  67. 00:44:29.042                             : en:Chapter 7
  68. 00:50:55.053                             : en:Chapter 8
复制代码






                                       
                                       

                                       
                                       
                                       




回复

使用道具 举报

懒得打字嘛,点击右侧快捷回复 【右侧内容,后台自定义】
您需要登录后才可以回帖 登录 | 立即加入

本版积分规则

Archiver| |网站地图

Copyright © 2024 Comsenz Inc. Powered by 蓝光电影网

本站内容由用户自主分享和转载自互联网,转载目的在于传递更多信息,并不代表本网赞同其观点和对其真实性负责。

如有侵权、违反国家法律政策行为,请联系我们,我们会第一时间及时清除和处理!

举报反馈邮箱:4k1080.com@gmail.com

快速回复 返回顶部 返回列表