找回密码

查看: 866|回复: 0

[动作] 公民战士 Citizen.Soldier.2016.1080p.BluRay.x264-SADPANDA 7.65GB

[复制链接]
蓝光币
2039
发表于 2019-7-29 14:33:41 | 显示全部楼层 |阅读模式


◎译  名 百姓战士
◎片  名 Citizen Soldier
◎年  代 2016
◎产  地 美国
◎类  别 行动
◎语  言 英语
◎上映日期 2016-08-30(美国)
◎IMDb评分  5.8/10 from 457 users
◎IMDb链接  http://www.imdb.com/title/tt4911408
◎豆瓣评分 0/10 from 0 users
◎豆瓣链接 https://movie.douban.com/subject/26841986/
◎片  长 105分钟(美国)
◎导  演 David Salzberg / Christian Tureaud
◎主  演 Jordan Alex
      James Tyler Brown
      Martin Byrne
      Jared Colson
      Colt Floyd
      Eran Harrill
      Nathan Kruse
      Justin Smith
      Raymond Viel
      Erik Wolff

◎标  签 美国 | 美国电影 | 2016 | 实在记录 | 3
◎简  介  
  本片从兵士的角度报告了俄克拉荷马州陆军百姓保镳队第45旅级战役群,在派遣到阿富汗的96天里的履历。经过大量录像,战地记录从另一个角度让我们审阅阿富汗战争。
  1. Video
  2. ID                                       : 1
  3. Format                                   : AVC
  4. Format/Info                              : Advanced Video Codec
  5. Format profile                           : [email protected]
  6. Format settings, CABAC                   : Yes
  7. Format settings, ReFrames                : 4 frames
  8. Codec ID                                 : V_MPEG4/ISO/AVC
  9. Duration                                 : 1h 44mn
  10. Bit rate                                 : 8 913 Kbps
  11. Width                                    : 1 920 pixels
  12. Height                                   : 1 080 pixels
  13. Display aspect ratio                     : 16:9
  14. Frame rate mode                          : Constant
  15. Frame rate                               : 29.970 (30000/1001) fps
  16. Color space                              : YUV
  17. Chroma subsampling                       : 4:2:0
  18. Bit depth                                : 8 bits
  19. Scan type                                : Progressive
  20. Bits/(Pixel*Frame)                       : 0.143
  21. Stream size                              : 6.53 GiB (85%)
  22. Writing library                          : x264 core 148 r2705 3f5ed56
  23. Encoding settings                        : cabac=1 / ref=4 / deblock=1:-3:-3 / analyse=0x3:0x113 / me=umh / subme=8 / psy=1 / psy_rd=1.00:0.25 / mixed_ref=1 / me_range=24 / chroma_me=1 / trellis=1 / 8x8dct=1 / cqm=0 / deadzone=21,11 / fast_pskip=1 / chroma_qp_offset=-4 / threads=24 / lookahead_threads=4 / sliced_threads=0 / nr=0 / decimate=1 / interlaced=0 / bluray_compat=0 / constrained_intra=0 / bframes=3 / b_pyramid=2 / b_adapt=2 / b_bias=0 / direct=3 / weightb=1 / open_gop=0 / weightp=2 / keyint=240 / keyint_min=24 / scenecut=40 / intra_refresh=0 / rc_lookahead=50 / rc=2pass / mbtree=1 / bitrate=8913 / ratetol=1.0 / qcomp=0.60 / qpmin=0 / qpmax=69 / qpstep=4 / cplxblur=20.0 / qblur=0.5 / ip_ratio=1.40 / aq=1:0.50
  24. Default                                  : Yes
  25. Forced                                   : No

  26. Audio
  27. ID                                       : 2
  28. Format                                   : DTS
  29. Format/Info                              : Digital Theater Systems
  30. Mode                                     : 16
  31. Format settings, Endianness              : Big
  32. Codec ID                                 : A_DTS
  33. Duration                                 : 1h 44mn
  34. Bit rate mode                            : Constant
  35. Bit rate                                 : 1 509 Kbps
  36. Channel(s)                               : 6 channels
  37. Channel positions                        : Front: L C R, Side: L R, LFE
  38. Sampling rate                            : 48.0 KHz
  39. Frame rate                               : 93.750 fps (512 spf)
  40. Bit depth                                : 24 bits
  41. Compression mode                         : Lossy
  42. Stream size                              : 1.11 GiB (14%)
  43. Language                                 : English
  44. Default                                  : Yes
  45. Forced                                   : No

  46. Menu
  47. 00:00:00.000                             : en:00:00:00.000
  48. 00:07:22.275                             : en:00:07:22.275
  49. 00:17:09.362                             : en:00:17:09.362
  50. 00:29:38.977                             : en:00:29:38.977
  51. 00:35:32.430                             : en:00:35:32.430
  52. 00:45:10.107                             : en:00:45:10.107
  53. 00:52:56.040                             : en:00:52:56.040
  54. 00:59:49.186                             : en:00:59:49.186
  55. 01:10:20.116                             : en:01:10:20.116
  56. 01:20:48.043                             : en:01:20:48.043
  57. 01:29:23.391                             : en:01:29:23.391
  58. 01:35:15.977                             : en:01:35:15.977
复制代码




                                       
                                       

                                       
                                       
                                       




相关帖子

回复

使用道具 举报

懒得打字嘛,点击右侧快捷回复 【右侧内容,后台自定义】
您需要登录后才可以回帖 登录 | 立即加入

本版积分规则

Archiver| |网站地图

Copyright © 2024 Comsenz Inc. Powered by 蓝光电影网

本站内容由用户自主分享和转载自互联网,转载目的在于传递更多信息,并不代表本网赞同其观点和对其真实性负责。

如有侵权、违反国家法律政策行为,请联系我们,我们会第一时间及时清除和处理!

举报反馈邮箱:4k1080.com@gmail.com

快速回复 返回顶部 返回列表