找回密码

查看: 1750|回复: 0

[喜剧] 织物/夺命霓裳 In.Fabric.2018.1080p.BluRay.REMUX.AVC.DTS-HD.MA.5.1-FGT 30.47GB

[复制链接]
蓝光币
2048
发表于 2019-8-29 17:59:13 | 显示全部楼层 |阅读模式


◎译  名 织物 / 夺命霓裳(港) / 荣幸衣 / 结构 / 霓裳鬼影(台)
◎片  名 In Fabric
◎年  代 2018
◎产  地 英国
◎类  别 笑剧 / 可骇
◎语  言 英语 / 法语
◎上映日期 2018-09-13(多伦多电影节) / 2019-06-28(英国)
◎IMDb评分  7.0/10 from 1237 users
◎IMDb链接  http://www.imdb.com/title/tt7464188
◎豆瓣评分 6.2/10 from 77 users
◎豆瓣链接 https://movie.douban.com/subject/26743527/
◎片  长 118分钟
◎导  演 彼得·斯崔克兰德 Peter Strickland
◎编  剧 彼得·斯崔克兰德 Peter Strickland
◎主  演 格温多兰·克里斯蒂 Gwendoline Christie
       西瑟·巴比特·科努德森 Sidse Babett Knudsen
       卡罗琳·凯兹 Caroline Catz
       朱利安·巴拉特 Julian Barratt
       玛丽安娜·琼-巴普蒂斯特 Marianne Jean-Baptiste
       海莉·斯奎尔斯 Hayley Squires
       里奥·比尔 Leo Bill
       理查德·布雷默 Richard Bremmer
       史蒂夫·奥拉姆 Steve Oram
       卡尔·法雷尔 Karl Farrer
       尤吉尼亚·克鲁索 Eugenia Caruso
       苏珊娜·卡佩拉罗 Susanna Cappellaro
       杰甘·艾伊 Jaygann Ayeh
       萨拉·德 Sara Dee
       安东尼奥·曼奇诺 Antonio Mancino
       Simon Manyonda
       Gavin Brocker
       Derek Barr
       Barry Adamson

◎标  签 可骇 | 英国 | 惊悚 | 2018 | 英国电影 | 电影 | PeterStrickland | 英國
◎简  介  
  中年银行职员Sheila Woolchapel在当地的百货公司买入了一件标致的红裙子后,面临原本费劲不奉迎的工作、沉默寡言的儿子以及噩梦般的女友时,感受士气大增。这条裙子甚至让她在单身专栏碰见喜好的汉子。但当她将裙子放入洗衣机那瞬间,由裙子激发的繁廉价格起头了。奥秘的售货员Miss Luckmoore拒绝发出裙子,而更可怕的是,这条裙子是没法扑灭的。
◎获奖情况  
  第66届圣塞巴斯蒂安国际电影节(2018)
  金贝壳奖(提名) 彼得·斯崔克兰德
  1. Video
  2. ID                                       : 1
  3. Format                                   : AVC
  4. Format/Info                              : Advanced Video Codec
  5. Format profile                           : [email protected]
  6. Format settings                          : CABAC / 4 Ref Frames
  7. Format settings, CABAC                   : Yes
  8. Format settings, Reference frames        : 4 frames
  9. Codec ID                                 : V_MPEG4/ISO/AVC
  10. Duration                                 : 1 h 58 min
  11. Bit rate mode                            : Variable
  12. Bit rate                                 : 26.6 Mb/s
  13. Maximum bit rate                         : 35.0 Mb/s
  14. Width                                    : 1 920 pixels
  15. Height                                   : 1 080 pixels
  16. Display aspect ratio                     : 16:9
  17. Frame rate mode                          : Constant
  18. Frame rate                               : 24.000 FPS
  19. Color space                              : YUV
  20. Chroma subsampling                       : 4:2:0
  21. Bit depth                                : 8 bits
  22. Scan type                                : Progressive
  23. Bits/(Pixel*Frame)                       : 0.534
  24. Stream size                              : 22.0 GiB (72%)
  25. Title                                    : In.Fabric.2018.1080p.BluRay.REMUX.AVC.DTS-HD.MA.5.1-FGT
  26. Language                                 : English
  27. Default                                  : No
  28. Forced                                   : No
  29. Audio #1
  30. ID                                       : 2
  31. Format                                   : DTS XLL
  32. Format/Info                              : Digital Theater Systems
  33. Commercial name                          : DTS-HD Master Audio
  34. Codec ID                                 : A_DTS
  35. Duration                                 : 1 h 58 min
  36. Bit rate mode                            : Variable
  37. Bit rate                                 : 3 262 kb/s
  38. Channel(s)                               : 6 channels
  39. Channel layout                           : C L R Ls Rs LFE
  40. Sampling rate                            : 48.0 kHz
  41. Frame rate                               : 93.750 FPS (512 SPF)
  42. Bit depth                                : 24 bits
  43. Compression mode                         : Lossless
  44. Stream size                              : 2.70 GiB (9%)
  45. Title                                    : In.Fabric.2018.1080p.BluRay.REMUX.AVC.DTS-HD.MA.5.1-FGT
  46. Language                                 : English
  47. Default                                  : Yes
  48. Forced                                   : No
  49. Audio #2
  50. ID                                       : 3
  51. Format                                   : PCM
  52. Format settings                          : Little / Signed
  53. Codec ID                                 : A_PCM/INT/LIT
  54. Duration                                 : 1 h 58 min
  55. Bit rate mode                            : Constant
  56. Bit rate                                 : 2 304 kb/s
  57. Channel(s)                               : 2 channels
  58. Sampling rate                            : 48.0 kHz
  59. Frame rate                               : 30.000 FPS (1600 SPF)
  60. Bit depth                                : 24 bits
  61. Stream size                              : 1.91 GiB (6%)
  62. Title                                    : In.Fabric.2018.1080p.BluRay.REMUX.AVC.DTS-HD.MA.5.1-FGT
  63. Language                                 : English
  64. Default                                  : No
  65. Forced                                   : No
  66. Audio #3
  67. ID                                       : 4
  68. Format                                   : PCM
  69. Format settings                          : Little / Signed
  70. Codec ID                                 : A_PCM/INT/LIT
  71. Duration                                 : 1 h 58 min
  72. Bit rate mode                            : Constant
  73. Bit rate                                 : 2 304 kb/s
  74. Channel(s)                               : 2 channels
  75. Sampling rate                            : 48.0 kHz
  76. Frame rate                               : 30.000 FPS (1600 SPF)
  77. Bit depth                                : 24 bits
  78. Stream size                              : 1.91 GiB (6%)
  79. Title                                    : In.Fabric.2018.1080p.BluRay.REMUX.AVC.DTS-HD.MA.5.1-FGT
  80. Language                                 : English
  81. Default                                  : No
  82. Forced                                   : No
  83. Audio #4
  84. ID                                       : 5
  85. Format                                   : PCM
  86. Format settings                          : Little / Signed
  87. Codec ID                                 : A_PCM/INT/LIT
  88. Duration                                 : 1 h 58 min
  89. Bit rate mode                            : Constant
  90. Bit rate                                 : 2 304 kb/s
  91. Channel(s)                               : 2 channels
  92. Sampling rate                            : 48.0 kHz
  93. Frame rate                               : 30.000 FPS (1600 SPF)
  94. Bit depth                                : 24 bits
  95. Stream size                              : 1.91 GiB (6%)
  96. Title                                    : In.Fabric.2018.1080p.BluRay.REMUX.AVC.DTS-HD.MA.5.1-FGT
  97. Language                                 : English
  98. Default                                  : No
  99. Forced                                   : No
  100. Text #1
  101. ID                                       : 6
  102. Format                                   : UTF-8
  103. Codec ID                                 : S_TEXT/UTF8
  104. Codec ID/Info                            : UTF-8 Plain Text
  105. Duration                                 : 1 h 54 min
  106. Bit rate                                 : 46 b/s
  107. Count of elements                        : 1005
  108. Stream size                              : 39.3 KiB (0%)
  109. Title                                    : English-SRT
  110. Language                                 : English
  111. Default                                  : Yes
  112. Forced                                   : No
  113. Text #2
  114. ID                                       : 7
  115. Format                                   : UTF-8
  116. Codec ID                                 : S_TEXT/UTF8
  117. Codec ID/Info                            : UTF-8 Plain Text
  118. Duration                                 : 1 h 56 min
  119. Bit rate                                 : 54 b/s
  120. Count of elements                        : 1209
  121. Stream size                              : 46.7 KiB (0%)
  122. Title                                    : English-SDH-SRT
  123. Language                                 : English
  124. Default                                  : No
  125. Forced                                   : No
  126. Text #3
  127. ID                                       : 8
  128. Format                                   : PGS
  129. Muxing mode                              : zlib
  130. Codec ID                                 : S_HDMV/PGS
  131. Codec ID/Info                            : Picture based subtitle format used on BDs/HD-DVDs
  132. Duration                                 : 1 h 56 min
  133. Bit rate                                 : 31.5 kb/s
  134. Count of elements                        : 2418
  135. Stream size                              : 26.2 MiB (0%)
  136. Title                                    : English-PGS
  137. Language                                 : English
  138. Default                                  : No
  139. Forced                                   : No
  140. Menu
  141. 00:00:00.000                             : en:Chapter 01
  142. 00:07:20.583                             : en:Chapter 02
  143. 00:17:52.958                             : en:Chapter 03
  144. 00:24:31.625                             : en:Chapter 04
  145. 00:37:39.875                             : en:Chapter 05
  146. 00:57:11.750                             : en:Chapter 06
  147. 01:05:46.916                             : en:Chapter 07
  148. 01:14:55.625                             : en:Chapter 08
  149. 01:27:47.791                             : en:Chapter 09
  150. 01:39:48.333                             : en:Chapter 10
  151. 01:46:39.333                             : en:Chapter 11
  152. 01:53:46.958                             : en:Chapter 12
复制代码






                                       
                                       

                                       
                                       
                                       




回复

使用道具 举报

懒得打字嘛,点击右侧快捷回复 【右侧内容,后台自定义】
您需要登录后才可以回帖 登录 | 立即加入

本版积分规则

Archiver| |网站地图

Copyright © 2024 Comsenz Inc. Powered by 蓝光电影网

本站内容由用户自主分享和转载自互联网,转载目的在于传递更多信息,并不代表本网赞同其观点和对其真实性负责。

如有侵权、违反国家法律政策行为,请联系我们,我们会第一时间及时清除和处理!

举报反馈邮箱:4k1080.com@gmail.com

快速回复 返回顶部 返回列表