找回密码

查看: 1571|回复: 0

[剧情] 最后命令 The.Last.Command.1928.CRITERION.1080p.BluRay.REMUX.AVC.LPCM.2.0-FGT 24.84GB

[复制链接]
蓝光币
2039
发表于 2019-10-11 00:12:09 | 显示全部楼层 |阅读模式


◎译  名 最初号令
◎片  名 The Last Command
◎年  代 1928
◎产  地 美国
◎类  别 剧情 / 冒险
◎语  言 英语
◎上映日期 1928-01-22(美国) / 1928-09-24(芬兰)
◎IMDb评分  8.0/10 from 3001 users
◎IMDb链接  http://www.imdb.com/title/tt0019071
◎豆瓣评分 8.4/10 from 374 users
◎豆瓣链接 https://movie.douban.com/subject/1292539/
◎片  长 85分钟(德国)
◎导  演 约瑟夫·冯·斯坦伯格 Josef von Sternberg
◎编  剧 John F. Goodrich / Herman J. Mankiewicz / Lajos Biró
◎主  演 Emil Jannings
       Evelyn Brent
       William Powell

◎标  签 美国 | 默片 | 约瑟夫·冯·斯登堡 | 1928 | 1920s | CC | Josef_von_Sternberg | JosefvonSternberg
◎简  介  
  一个姑且演员被召去在一部关于俄国反动的电影中饰演一位将军,但是,他并不是一位普通的姑且演员,他就是谢尔盖·亚历山大,尼古拉斯沙皇期间的一位前将军。他在1917年共产主义反动后从俄国军队里逃到了好莱坞。现在,为了使电影的导演,一个也曾加入过俄国反动的人满足,他被迫要去重新 履历那一段曾带给他无贫苦痛的生活。这一次,这个倒霉的将军有机遇去“赢得”那已经狼奔豕突的战争。电影闪回到亚历山大在俄战中的艰难生活。他感应不管他怎样尽力,似乎都没法阻止历史的车轮滔滔向前。可是有一个女孩了解他,由于他的激烈的爱国精神和正直的行为,这个女孩爱上了他……
◎获奖情况  
  第1届奥斯卡金像奖(1929)
  最好男配角 埃米尔·雅宁斯
  最好原创故事(提名) 拉约什·比罗
  1. Video
  2. ID                                       : 1
  3. Format                                   : AVC
  4. Format/Info                              : Advanced Video Codec
  5. Format profile                           : [email protected]
  6. Format settings                          : CABAC / 4 Ref Frames
  7. Format settings, CABAC                   : Yes
  8. Format settings, Reference frames        : 4 frames
  9. Format settings, GOP                     : M=3, N=12
  10. Codec ID                                 : V_MPEG4/ISO/AVC
  11. Duration                                 : 1 h 28 min
  12. Bit rate mode                            : Variable
  13. Bit rate                                 : 35.5 Mb/s
  14. Maximum bit rate                         : 37.0 Mb/s
  15. Width                                    : 1 920 pixels
  16. Height                                   : 1 080 pixels
  17. Display aspect ratio                     : 16:9
  18. Frame rate mode                          : Constant
  19. Frame rate                               : 23.976 (24000/1001) FPS
  20. Color space                              : YUV
  21. Chroma subsampling                       : 4:2:0
  22. Bit depth                                : 8 bits
  23. Scan type                                : Progressive
  24. Bits/(Pixel*Frame)                       : 0.714
  25. Stream size                              : 22.0 GiB (89%)
  26. Title                                    : The.Last.Command.1928.1080p.BluRay.REMUX.AVC.LPCM.2.0-FGT
  27. Language                                 : English
  28. Default                                  : No
  29. Forced                                   : No
  30. Audio #1
  31. ID                                       : 2
  32. Format                                   : PCM
  33. Format settings                          : Little / Signed
  34. Codec ID                                 : A_PCM/INT/LIT
  35. Duration                                 : 1 h 28 min
  36. Bit rate mode                            : Constant
  37. Bit rate                                 : 2 304 kb/s
  38. Channel(s)                               : 2 channels
  39. Sampling rate                            : 48.0 kHz
  40. Frame rate                               : 30.000 FPS (1600 SPF)
  41. Bit depth                                : 24 bits
  42. Stream size                              : 1.43 GiB (6%)
  43. Title                                    : The.Last.Command.1928.1080p.BluRay.REMUX.AVC.LPCM.2.0-FGT
  44. Language                                 : English
  45. Default                                  : Yes
  46. Forced                                   : No
  47. Audio #2
  48. ID                                       : 3
  49. Format                                   : PCM
  50. Format settings                          : Little / Signed
  51. Codec ID                                 : A_PCM/INT/LIT
  52. Duration                                 : 1 h 28 min
  53. Bit rate mode                            : Constant
  54. Bit rate                                 : 2 304 kb/s
  55. Channel(s)                               : 2 channels
  56. Sampling rate                            : 48.0 kHz
  57. Frame rate                               : 30.000 FPS (1600 SPF)
  58. Bit depth                                : 24 bits
  59. Stream size                              : 1.43 GiB (6%)
  60. Title                                    : The.Last.Command.1928.1080p.BluRay.REMUX.AVC.LPCM.2.0-FGT
  61. Language                                 : English
  62. Default                                  : No
  63. Forced                                   : No
  64. Menu
  65. 00:00:00.000                             : en:Chapter 01
  66. 00:01:13.156                             : en:Chapter 02
  67. 00:04:04.744                             : en:Chapter 03
  68. 00:12:11.147                             : en:Chapter 04
  69. 00:17:29.256                             : en:Chapter 05
  70. 00:22:54.039                             : en:Chapter 06
  71. 00:28:43.471                             : en:Chapter 07
  72. 00:34:21.476                             : en:Chapter 08
  73. 00:40:25.131                             : en:Chapter 09
  74. 00:49:00.604                             : en:Chapter 10
  75. 00:54:26.638                             : en:Chapter 11
  76. 01:02:41.132                             : en:Chapter 12
  77. 01:10:07.661                             : en:Chapter 13
  78. 01:14:46.398                             : en:Chapter 14
  79. 01:22:06.588                             : en:Chapter 15
复制代码






                                       
                                       

                                       
                                       
                                       




回复

使用道具 举报

懒得打字嘛,点击右侧快捷回复 【右侧内容,后台自定义】
您需要登录后才可以回帖 登录 | 立即加入

本版积分规则

Archiver| |网站地图

Copyright © 2024 Comsenz Inc. Powered by 蓝光电影网

本站内容由用户自主分享和转载自互联网,转载目的在于传递更多信息,并不代表本网赞同其观点和对其真实性负责。

如有侵权、违反国家法律政策行为,请联系我们,我们会第一时间及时清除和处理!

举报反馈邮箱:4k1080.com@gmail.com

快速回复 返回顶部 返回列表