找回密码

查看: 4340|回复: 2

[动作] 拆弹专家2 Shock.Wave.2.2020.CHINESE.1080p.BluRay.REMUX.AVC.DTS-HD.MA.TrueHD.7.1.Atmos.7.1-FGT 40.52GB

[复制链接]
蓝光币
2048
发表于 2021-6-8 17:32:44 | 显示全部楼层 |阅读模式


◎译  名 Shock Wave 2
◎片  名 拆弹专家2
◎年  代 2020
◎产  地 中国大陆,中国香港
◎类  别 行动 / 犯罪
◎语  言 汉语普通话,粤语,英语
◎上映日期 2020-12-24(中国大陆) / 2021-02-18(中国香港)
◎豆瓣评分 7.6/10 from 456807 users
◎豆瓣链接 https://movie.douban.com/subject/30171424/
◎片  长 121分钟
◎导  演 邱礼涛 Herman Yau
◎编  剧 邱礼涛 Herman Yau / 李敏 Erica Lee / 李昇 Eric Lee
◎主  演 刘德华 Andy Lau
       刘青云 Sean Lau
       倪妮 Ni Ni
       谢君豪 Kwan-Ho Tse
       姜皓文 Philip Keung Ho-Man
       吴卓羲 Ron Ng
       马浴柯 Marc Ma
       黄德斌 Tak-bun Wong
       郑子诚 Tse-sing Cheng
       洪天明 Timmy Hung Tin-Ming
       袁富华 Fu-wah Yuen
       刘浩龙 Wilfred Lau
       凌文龙 Man-Lung Ling
       赵永洪 Raymond Chiu
       蔡瀚亿 Babyjohn Choi
       张竣杰 Chun Kit Chang
       声张 Yang Zhang
       伍咏诗 Ng Wing Sze
       吴海昕 Sofiee Ng
       周祉君 Aaron Chow
       梁天尺 Leung Tin Chak
       钟志光 Chung Chi Kwong
       顾纪筠 Priscilla Koo
       安吉·阿维斯塔 Angie Aveestar
       梁健平 Kin Ping Leung
       甄咏蓓 Olivia Yan
◎标  签 香港 | 警匪 | 犯罪 | 行动 | 2020 | 剧情 | 电影 | 华语
◎简  介


  香港某处发生爆炸案,前拆弹专家潘乘风(刘德华 饰)因昏迷于现场,被警方思疑牵扯其中。苏醒后的潘乘风只能一边流亡一边查明真相,但是,他的好友董卓文(刘青云 饰)和他的前女友庞玲(倪妮 饰)却给他报告了两段截然分歧的履历。有计划的爆炸案持续不断发生,真相却越来越扑朔迷离……
  1. Video
  2. ID                                       : 1
  3. ID in the original source medium         : 4113 (0x1011)
  4. Format                                   : AVC
  5. Format/Info                              : Advanced Video Codec
  6. Format profile                           : [email protected]
  7. Format settings                          : CABAC / 4 Ref Frames
  8. Format settings, CABAC                   : Yes
  9. Format settings, Reference frames        : 4 frames
  10. Codec ID                                 : V_MPEG4/ISO/AVC
  11. Duration                                 : 2 h 0 min
  12. Bit rate mode                            : Variable
  13. Bit rate                                 : 26.8 Mb/s
  14. Maximum bit rate                         : 28.0 Mb/s
  15. Width                                    : 1 920 pixels
  16. Height                                   : 1 080 pixels
  17. Display aspect ratio                     : 16:9
  18. Frame rate mode                          : Constant
  19. Frame rate                               : 24.000 FPS
  20. Color space                              : YUV
  21. Chroma subsampling                       : 4:2:0
  22. Bit depth                                : 8 bits
  23. Scan type                                : Progressive
  24. Bits/(Pixel*Frame)                       : 0.538
  25. Stream size                              : 22.5 GiB (56%)
  26. Language                                 : English
  27. Default                                  : No
  28. Forced                                   : No
  29. Original source medium                   : Blu-ray
  30. Audio #1
  31. ID                                       : 2
  32. ID in the original source medium         : 4352 (0x1100)
  33. Format                                   : MLP FBA 16-ch
  34. Format/Info                              : Meridian Lossless Packing FBA with 16-channel presentation
  35. Commercial name                          : Dolby TrueHD with Dolby Atmos
  36. Codec ID                                 : A_TRUEHD
  37. Duration                                 : 2 h 0 min
  38. Bit rate mode                            : Variable
  39. Bit rate                                 : 5 172 kb/s
  40. Maximum bit rate                         : 8 928 kb/s
  41. Channel(s)                               : 8 channels
  42. Channel layout                           : L R C LFE Ls Rs Lb Rb
  43. Sampling rate                            : 48.0 kHz
  44. Frame rate                               : 1 200.000 FPS (40 SPF)
  45. Bit depth                                : 24 bits
  46. Compression mode                         : Lossless
  47. Stream size                              : 4.35 GiB (11%)
  48. Title                                    : TrueHD 7.1. Atmos
  49. Language                                 : Chinese
  50. Default                                  : Yes
  51. Forced                                   : No
  52. Original source medium                   : Blu-ray
  53. Number of dynamic objects                : 11
  54. Bed channel count                        : 1 channel
  55. Bed channel configuration                : LFE
  56. Audio #2
  57. ID                                       : 3
  58. Format                                   : DTS XLL
  59. Format/Info                              : Digital Theater Systems
  60. Commercial name                          : DTS-HD Master Audio
  61. Codec ID                                 : A_DTS
  62. Duration                                 : 2 h 0 min
  63. Bit rate mode                            : Variable
  64. Bit rate                                 : 4 799 kb/s
  65. Channel(s)                               : 8 channels
  66. Channel layout                           : C L R LFE Lb Rb Lss Rss
  67. Sampling rate                            : 48.0 kHz
  68. Frame rate                               : 93.750 FPS (512 SPF)
  69. Bit depth                                : 24 bits
  70. Compression mode                         : Lossless
  71. Stream size                              : 4.03 GiB (10%)
  72. Title                                    : DTS-HD MA 7.1
  73. Language                                 : Chinese
  74. Default                                  : No
  75. Forced                                   : No
  76. Audio #3
  77. ID                                       : 4
  78. ID in the original source medium         : 4352 (0x1100)
  79. Format                                   : AC-3
  80. Format/Info                              : Audio Coding 3
  81. Commercial name                          : Dolby Digital
  82. Format settings                          : Dolby Surround EX
  83. Codec ID                                 : A_AC3
  84. Duration                                 : 2 h 0 min
  85. Bit rate mode                            : Constant
  86. Bit rate                                 : 640 kb/s
  87. Channel(s)                               : 6 channels
  88. Channel layout                           : L R C LFE Ls Rs
  89. Sampling rate                            : 48.0 kHz
  90. Frame rate                               : 31.250 FPS (1536 SPF)
  91. Compression mode                         : Lossy
  92. Stream size                              : 551 MiB (1%)
  93. Title                                    : DD 5.1
  94. Language                                 : Chinese
  95. Service kind                             : Complete Main
  96. Default                                  : No
  97. Forced                                   : No
  98. Original source medium                   : Blu-ray
  99. Audio #4
  100. ID                                       : 5
  101. ID in the original source medium         : 4353 (0x1101)
  102. Format                                   : MLP FBA 16-ch
  103. Format/Info                              : Meridian Lossless Packing FBA with 16-channel presentation
  104. Commercial name                          : Dolby TrueHD with Dolby Atmos
  105. Codec ID                                 : A_TRUEHD
  106. Duration                                 : 2 h 0 min
  107. Bit rate mode                            : Variable
  108. Bit rate                                 : 5 184 kb/s
  109. Maximum bit rate                         : 8 994 kb/s
  110. Channel(s)                               : 8 channels
  111. Channel layout                           : L R C LFE Ls Rs Lb Rb
  112. Sampling rate                            : 48.0 kHz
  113. Frame rate                               : 1 200.000 FPS (40 SPF)
  114. Bit depth                                : 24 bits
  115. Compression mode                         : Lossless
  116. Stream size                              : 4.36 GiB (11%)
  117. Title                                    : TrueHD 7.1. Atmos
  118. Language                                 : Chinese
  119. Default                                  : No
  120. Forced                                   : No
  121. Original source medium                   : Blu-ray
  122. Number of dynamic objects                : 11
  123. Bed channel count                        : 1 channel
  124. Bed channel configuration                : LFE
  125. Audio #5
  126. ID                                       : 6
  127. Format                                   : DTS XLL
  128. Format/Info                              : Digital Theater Systems
  129. Commercial name                          : DTS-HD Master Audio
  130. Codec ID                                 : A_DTS
  131. Duration                                 : 2 h 0 min
  132. Bit rate mode                            : Variable
  133. Bit rate                                 : 4 806 kb/s
  134. Channel(s)                               : 8 channels
  135. Channel layout                           : C L R LFE Lb Rb Lss Rss
  136. Sampling rate                            : 48.0 kHz
  137. Frame rate                               : 93.750 FPS (512 SPF)
  138. Bit depth                                : 24 bits
  139. Compression mode                         : Lossless
  140. Stream size                              : 4.04 GiB (10%)
  141. Title                                    : DTS-HD MA 7.1
  142. Language                                 : Chinese
  143. Default                                  : No
  144. Forced                                   : No
  145. Audio #6
  146. ID                                       : 7
  147. ID in the original source medium         : 4353 (0x1101)
  148. Format                                   : AC-3
  149. Format/Info                              : Audio Coding 3
  150. Commercial name                          : Dolby Digital
  151. Format settings                          : Dolby Surround EX
  152. Codec ID                                 : A_AC3
  153. Duration                                 : 2 h 0 min
  154. Bit rate mode                            : Constant
  155. Bit rate                                 : 640 kb/s
  156. Channel(s)                               : 6 channels
  157. Channel layout                           : L R C LFE Ls Rs
  158. Sampling rate                            : 48.0 kHz
  159. Frame rate                               : 31.250 FPS (1536 SPF)
  160. Compression mode                         : Lossy
  161. Stream size                              : 551 MiB (1%)
  162. Title                                    : DD 5.1
  163. Language                                 : Chinese
  164. Service kind                             : Complete Main
  165. Default                                  : No
  166. Forced                                   : No
  167. Original source medium                   : Blu-ray
  168. Text #1
  169. ID                                       : 8
  170. Format                                   : UTF-8
  171. Codec ID                                 : S_TEXT/UTF8
  172. Codec ID/Info                            : UTF-8 Plain Text
  173. Duration                                 : 1 h 55 min
  174. Bit rate                                 : 51 b/s
  175. Count of elements                        : 1815
  176. Stream size                              : 43.8 KiB (0%)
  177. Title                                    : English-SRT
  178. Language                                 : English
  179. Default                                  : Yes
  180. Forced                                   : No
  181. Text #2
  182. ID                                       : 9
  183. ID in the original source medium         : 4610 (0x1202)
  184. Format                                   : PGS
  185. Muxing mode                              : zlib
  186. Codec ID                                 : S_HDMV/PGS
  187. Codec ID/Info                            : Picture based subtitle format used on BDs/HD-DVDs
  188. Duration                                 : 1 h 55 min
  189. Bit rate                                 : 35.2 kb/s
  190. Count of elements                        : 3288
  191. Stream size                              : 29.0 MiB (0%)
  192. Title                                    : English-PGS
  193. Language                                 : English
  194. Default                                  : No
  195. Forced                                   : No
  196. Original source medium                   : Blu-ray
  197. Text #3
  198. ID                                       : 10
  199. ID in the original source medium         : 4608 (0x1200)
  200. Format                                   : PGS
  201. Muxing mode                              : zlib
  202. Codec ID                                 : S_HDMV/PGS
  203. Codec ID/Info                            : Picture based subtitle format used on BDs/HD-DVDs
  204. Duration                                 : 1 h 55 min
  205. Bit rate                                 : 32.4 kb/s
  206. Count of elements                        : 3286
  207. Stream size                              : 26.7 MiB (0%)
  208. Title                                    : Chinese-PGS
  209. Language                                 : Chinese
  210. Default                                  : No
  211. Forced                                   : No
  212. Original source medium                   : Blu-ray
  213. Text #4
  214. ID                                       : 11
  215. ID in the original source medium         : 4609 (0x1201)
  216. Format                                   : PGS
  217. Muxing mode                              : zlib
  218. Codec ID                                 : S_HDMV/PGS
  219. Codec ID/Info                            : Picture based subtitle format used on BDs/HD-DVDs
  220. Duration                                 : 1 h 55 min
  221. Bit rate                                 : 30.0 kb/s
  222. Count of elements                        : 3286
  223. Stream size                              : 24.7 MiB (0%)
  224. Title                                    : Chinese-PGS
  225. Language                                 : Chinese
  226. Default                                  : No
  227. Forced                                   : No
  228. Original source medium                   : Blu-ray
  229. Menu
  230. 00:00:00.000                             : Chapter 01
  231. 00:14:42.083                             : Chapter 02
  232. 00:23:21.833                             : Chapter 03
  233. 00:33:24.500                             : Chapter 04
  234. 00:48:20.500                             : Chapter 05
  235. 00:56:44.916                             : Chapter 06
  236. 01:11:31.000                             : Chapter 07
  237. 01:17:01.416                             : Chapter 08
  238. 01:26:24.000                             : Chapter 09
  239. 01:34:30.791                             : Chapter 10
  240. 01:41:33.916                             : Chapter 11
  241. 01:56:59.166                             : Chapter 12
复制代码







                                       
                                       

                                       
                                       
                                       




拆弹专家2 Shock.Wave.2.2020.CHINESE.1080p.BluRay.REMUX.AVC.DTS-HD.MA.TrueHD.7.1.Atmos.7.1-FGT 40.52GB

Shock.Wave.2.2020.CHINESE.1080p.BluRay.REMUX.AVC.DTS-HD.MA.TrueHD.7.1.Atmos.7.1-.torrent

101.99 KB, 下载次数: 82, 下载积分: 蓝光币 -2

回复

使用道具 举报

蓝光币
281
发表于 2021-9-21 10:09:06 | 显示全部楼层
楼主发贴辛苦了,谢谢楼主分享!
回复

使用道具 举报

蓝光币
445
发表于 2022-4-7 14:58:43 | 显示全部楼层
谢谢楼主发片
回复

使用道具 举报

懒得打字嘛,点击右侧快捷回复 【右侧内容,后台自定义】
您需要登录后才可以回帖 登录 | 立即加入

本版积分规则

Archiver| |网站地图

Copyright © 2024 Comsenz Inc. Powered by 蓝光电影网

本站内容由用户自主分享和转载自互联网,转载目的在于传递更多信息,并不代表本网赞同其观点和对其真实性负责。

如有侵权、违反国家法律政策行为,请联系我们,我们会第一时间及时清除和处理!

举报反馈邮箱:4k1080.com@gmail.com

快速回复 返回顶部 返回列表