找回密码

查看: 1198|回复: 0

[喜剧] 不惜一切/妮可基曼爱的机密 To.Die.For.1995.1080p.BluRay.X264-AMIABLE 6.56GB

[复制链接]
蓝光币
2048
发表于 2020-12-6 09:15:13 | 显示全部楼层 |阅读模式


◎译  名 不惜一切/妮可基曼爱的机密(台)/爱的机密
◎片  名 To Die For
◎年  代 1995
◎产  地 英国,法国
◎类  别 笑剧 / 犯罪
◎语  言 英语
◎上映日期 1995-05-20(戛纳电影节) / 1995-10-27(英国) / 1995-12-06(法国)
◎IMDb评分  6.8/10 from 43307 users
◎IMDb链接  https://www.imdb.com/title/tt0114681/
◎豆瓣评分 6.8/10 from 2751 users
◎豆瓣链接 https://movie.douban.com/subject/1297768/
◎片  长 106 分钟
◎导  演 格斯·范·桑特 Gus Van Sant
◎编  剧 乔伊丝·梅纳德 Joyce Maynard / 巴克·亨利 Buck Henry
◎主  演 妮可·基德曼 Nicole Kidman
       马特·狄龙 Matt Dillon
       华金·菲尼克斯 Joaquin Phoenix
       卡西·阿弗莱克 Casey Affleck
       伊里纳·道格拉斯 Illeana Douglas
       艾莉森·福兰德 Alison Folland
       丹·哈达亚 Dan Hedaya
       韦恩·奈特 Wayne Knight
       柯特伍德·史姑娘 Kurtwood Smith
       霍兰德·泰勒 Holland Taylor
       苏珊·特雷勒 Susan Traylor
       Maria Tucci
       迈克尔·里斯波利 Michael Rispoli
       巴克·亨利 Buck Henry
       康拉德·科茨 Conrad Coates
       乔伊丝·梅纳德 Joyce Maynard
       大卫·柯林斯 David Collins
       大卫·柯南伯格 David Cronenberg
       Andrew Scott
       Tamara Gorski
       瑞恩·菲尼克斯 Rain Phoenix
       乔治·席格 George Segal
       Isabella Simone
◎标  签 NicoleKidman | 美国 | GusVanSant | 犯罪 | 1995 | 剧情 | 美国电影 | 妮可·基德曼
◎简  介


  天气播报员苏珊(尼克·基德曼 Nicole Kidman 饰)因涉嫌丈夫被害的谋杀案一时成为媒体焦点,数位当事人的访谈将事务的进程慢慢显现……
  
  发愤处置消息奇迹的苏珊大志万丈,掉臂丈夫拉利(马特·狄龙 Matt Dillon 饰)的意大利裔家庭否决,尽力停止入行的响应预备,并终极为当地一家仅两名工作职员的有线电视台聘用,担任“天气女郎”。苏珊高昂的工作热情并未被悲观的情况打退,不竭提收工作计划,并动手深入黉舍的青年访谈系列节目,由此结识了詹姆斯(杰昆·菲尼克斯 Joaquin Phoenix 饰)等三位叛逆青年,詹姆斯深深迷恋苏珊。当苏珊意想到丈夫正在成为她奇迹上的障碍时,操纵詹姆斯枪杀了拉利。苏珊自认是最初的赢家,但情况忽然相持不下。
◎获奖情况
  第49届英国电影学院奖 ?(1996)
  电影奖最好女配角(提名) 妮可·基德曼
  1. Video
  2. ID                                       : 1
  3. Format                                   : AVC
  4. Format/Info                              : Advanced Video Codec
  5. Format profile                           : [email protected]
  6. Format settings                          : CABAC / 4 Ref Frames
  7. Format settings, CABAC                   : Yes
  8. Format settings, Reference frames        : 4 frames
  9. Muxing mode                              : Header stripping
  10. Codec ID                                 : V_MPEG4/ISO/AVC
  11. Duration                                 : 1 h 46 min
  12. Bit rate                                 : 8 182 kb/s
  13. Width                                    : 1 920 pixels
  14. Height                                   : 1 040 pixels
  15. Display aspect ratio                     : 1.85:1
  16. Frame rate mode                          : Constant
  17. Frame rate                               : 23.976 (24000/1001/189150) FPS
  18. Color space                              : YUV
  19. Chroma subsampling                       : 4:2:0
  20. Bit depth                                : 8 bits
  21. Scan type                                : Progressive
  22. Bits/(Pixel*Frame)                       : 0.171
  23. Stream size                              : 5.95 GiB (91%)
  24. Writing library                          : x264 core 119 r2106 07efeb4
  25. Encoding settings                        : cabac=1 / ref=4 / deblock=1:0:0 / analyse=0x3:0x113 / me=umh / subme=8 / psy=1 / psy_rd=1.00:0.00 / mixed_ref=1 / me_range=16 / chroma_me=1 / trellis=1 / 8x8dct=1 / cqm=0 / deadzone=21,11 / fast_pskip=1 / chroma_qp_offset=-2 / threads=12 / sliced_threads=0 / nr=0 / decimate=1 / interlaced=0 / bluray_compat=0 / constrained_intra=0 / bframes=3 / b_pyramid=2 / b_adapt=2 / b_bias=0 / direct=3 / weightb=1 / open_gop=0 / weightp=2 / keyint=240 / keyint_min=24 / scenecut=40 / intra_refresh=0 / rc_lookahead=50 / rc=2pass / mbtree=1 / bitrate=8182 / ratetol=1.0 / qcomp=0.60 / qpmin=0 / qpmax=69 / qpstep=4 / cplxblur=20.0 / qblur=0.5 / ip_ratio=1.40 / aq=1:1.00
  26. Language                                 : English
  27. Default                                  : No
  28. Forced                                   : No

  29. Audio
  30. ID                                       : 2
  31. Format                                   : AC-3
  32. Format/Info                              : Audio Coding 3
  33. Commercial name                          : Dolby Digital
  34. Muxing mode                              : Header stripping
  35. Codec ID                                 : A_AC3
  36. Duration                                 : 1 h 46 min
  37. Bit rate mode                            : Constant
  38. Bit rate                                 : 640 kb/s
  39. Channel(s)                               : 6 channels
  40. Channel(s)_Original                      : 2 channels
  41. ChannelLayout_Original                   : L R
  42. Sampling rate                            : 48.0 kHz
  43. Frame rate                               : 31.250 FPS (1536 SPF)
  44. Compression mode                         : Lossy
  45. Stream size                              : 487 MiB (7%)
  46. Language                                 : English
  47. Service kind                             : Complete Main
  48. Default                                  : No
  49. Forced                                   : No

  50. Text
  51. ID                                       : 3
  52. Format                                   : UTF-8
  53. Codec ID                                 : S_TEXT/UTF8
  54. Codec ID/Info                            : UTF-8 Plain Text
  55. Language                                 : Romanian
  56. Default                                  : Yes
  57. Forced                                   : No
复制代码








                                       
                                       

                                       
                                       
                                       




回复

使用道具 举报

懒得打字嘛,点击右侧快捷回复 【右侧内容,后台自定义】
您需要登录后才可以回帖 登录 | 立即加入

本版积分规则

Archiver| |网站地图

Copyright © 2024 Comsenz Inc. Powered by 蓝光电影网

本站内容由用户自主分享和转载自互联网,转载目的在于传递更多信息,并不代表本网赞同其观点和对其真实性负责。

如有侵权、违反国家法律政策行为,请联系我们,我们会第一时间及时清除和处理!

举报反馈邮箱:4k1080.com@gmail.com

快速回复 返回顶部 返回列表