找回密码

查看: 1549|回复: 0

[剧情] 模仿女孩 Imitation.Girl.2017.1080p.BluRay.REMUX.AVC.DTS-HD.MA.2.0-FGT 12.45GB

[复制链接]
蓝光币
2048
发表于 2019-10-7 22:57:09 | 显示全部楼层 |阅读模式


◎译  名 模仿女孩
◎片  名 Imitation Girl
◎年  代 2017
◎产  地 美国
◎类  别 剧情 / 科幻
◎语  言 英语
◎上映日期 2017-03-04
◎IMDb评分  4.9/10 from 363 users
◎IMDb链接  http://www.imdb.com/title/tt5612564
◎豆瓣评分 0/10 from 0 users
◎豆瓣链接 https://movie.douban.com/subject/26985563/
◎片  长 84分钟
◎导  演 Natasha Kermani
◎编  剧 Natasha Kermani
◎主  演 劳伦·阿什利·卡特 Lauren Ashley Carter
       刘易斯·布莱克 Lewis Black
       亚当·大卫·汤普森 Adam David Thompson
       Neimah Djourabchi
       凯瑟琳·玛丽·斯图尔特 Catherine Mary Stewart
       Stefanie Woodburn
       Sanam Erfani
       凯文·奥罗克 Kevin O'Rourke
       William Wakeland
       Taylor Warden
       Kevin Metz
       Brian Morvant
       凯利·奥弗贝 Kellie Overbey
       Gerrard Lobo
       Kalyn West
       Christopher Watson
       Rachel Darden Bennett
       Martin Pfefferkorn
       Tempest
       玛莎·斯蒂芬妮·布莱克 Marsha Stephanie Blake

◎标  签 科幻 | 美国 | 剧情 | 人生 | 美国电影 | 奇异 | 2017
◎简  介  
  A mysterious young woman materializes in the middle of the southwestern desert, where each step teaches her about her new world and her new body. As she assumes her new life, she discovers she has a twin with whom she shares more than just an outward appearance.
  1. Video
  2. ID                                       : 1
  3. Format                                   : AVC
  4. Format/Info                              : Advanced Video Codec
  5. Format profile                           : [email protected]
  6. Format settings                          : CABAC / 2 Ref Frames
  7. Format settings, CABAC                   : Yes
  8. Format settings, Reference frames        : 2 frames
  9. Codec ID                                 : V_MPEG4/ISO/AVC
  10. Duration                                 : 1 h 23 min
  11. Bit rate mode                            : Variable
  12. Bit rate                                 : 20.4 Mb/s
  13. Maximum bit rate                         : 30.2 Mb/s
  14. Width                                    : 1 920 pixels
  15. Height                                   : 1 080 pixels
  16. Display aspect ratio                     : 16:9
  17. Frame rate mode                          : Constant
  18. Frame rate                               : 23.976 (24000/1001) FPS
  19. Color space                              : YUV
  20. Chroma subsampling                       : 4:2:0
  21. Bit depth                                : 8 bits
  22. Scan type                                : Progressive
  23. Bits/(Pixel*Frame)                       : 0.410
  24. Stream size                              : 11.9 GiB (96%)
  25. Title                                    : Imitation.Girl.2017.1080p.BluRay.REMUX.AVC.DTS-HD.MA.2.0-FGT
  26. Language                                 : English
  27. Default                                  : No
  28. Forced                                   : No
  29. Audio
  30. ID                                       : 2
  31. Format                                   : DTS XLL
  32. Format/Info                              : Digital Theater Systems
  33. Commercial name                          : DTS-HD Master Audio
  34. Codec ID                                 : A_DTS
  35. Duration                                 : 1 h 23 min
  36. Bit rate mode                            : Variable
  37. Bit rate                                 : 924 kb/s
  38. Channel(s)                               : 2 channels
  39. Sampling rate                            : 48.0 kHz
  40. Frame rate                               : 93.750 FPS (512 SPF)
  41. Bit depth                                : 16 bits
  42. Compression mode                         : Lossless
  43. Stream size                              : 553 MiB (4%)
  44. Title                                    : Imitation.Girl.2017.1080p.BluRay.REMUX.AVC.DTS-HD.MA.2.0-FGT
  45. Language                                 : English
  46. Default                                  : Yes
  47. Forced                                   : No
  48. Menu
  49. 00:00:00.000                             : en:Chapter 01
  50. 00:06:51.077                             : en:Chapter 02
  51. 00:18:50.337                             : en:Chapter 03
  52. 00:25:57.138                             : en:Chapter 04
  53. 00:33:52.655                             : en:Chapter 05
  54. 00:41:42.958                             : en:Chapter 06
  55. 00:47:23.382                             : en:Chapter 07
  56. 00:53:54.856                             : en:Chapter 08
  57. 00:58:20.497                             : en:Chapter 09
  58. 01:03:28.346                             : en:Chapter 10
  59. 01:12:15.247                             : en:Chapter 11
  60. 01:20:31.576                             : en:Chapter 12
复制代码






                                       
                                       

                                       
                                       
                                       




回复

使用道具 举报

懒得打字嘛,点击右侧快捷回复 【右侧内容,后台自定义】
您需要登录后才可以回帖 登录 | 立即加入

本版积分规则

Archiver| |网站地图

Copyright © 2024 Comsenz Inc. Powered by 蓝光电影网

本站内容由用户自主分享和转载自互联网,转载目的在于传递更多信息,并不代表本网赞同其观点和对其真实性负责。

如有侵权、违反国家法律政策行为,请联系我们,我们会第一时间及时清除和处理!

举报反馈邮箱:4k1080.com@gmail.com

快速回复 返回顶部 返回列表