找回密码

查看: 1206|回复: 0

[动作] 太空堡垒卡拉狄加:血与铬 Battlestar.Galactica.Blood.and.Chrome.2012.1080p.BluRay.x264-GECKOS 6.55GB

[复制链接]
蓝光币
2039
发表于 2019-7-23 23:22:56 | 显示全部楼层 |阅读模式


◎译  名 太空堡垒卡拉狄加:血与铬
◎片  名 Battlestar Galactica: Blood & Chrome
◎年  代 2012
◎产  地 美国
◎类  别 行动 / 科幻
◎语  言 英语
◎上映日期 2012-11-09(美国)
◎IMDb评分  7.0/10 from 16132 users
◎IMDb链接  http://www.imdb.com/title/tt1704292
◎豆瓣评分 6.4/10 from 2423 users
◎豆瓣链接 https://movie.douban.com/subject/5504174/
◎片  长 94分钟
◎导  演 乔纳斯·佩特 Jonas Pate
◎编  剧 Glen A. Larson
◎主  演 Lili Bordán
      卢克·帕斯夸尼洛 Luke Pasqualino
      本·科顿 Ben Cotton
      约翰·派珀-弗格森 John Pyper-Ferguson
      布莱恩·马克金森 Brian Markinson
      塞巴斯蒂安·斯宾赛 Sebastian Spence
      泰·奥尔森 Ty Olsson
      扎克·圣蒂亚戈 Zak Santiago
      麦克·多普德 Mike Dopud
      艾德里安·霍姆斯 Adrian Holmes
      Carmen Moore
      特瑞·陈 Terry Chen
      Leo Li Chiang
      Colin Corrigan

◎标  签 科幻 | 美剧 | 美国 | 战争 | 2012 | BattlestarGalactica | 电视剧 | Syfy
◎简  介  
  已经衷心办事于人类,可谓文化最高代表的赛昂智能机械人,其所激发的叛乱难以设想。第一次赛昂战争战后的第十年,自幼发愤报效国家的热血青年威廉·阿达玛(卢克·帕斯夸尼洛 Luke Pasqualino 饰)以优异且使人叹服的成就顺遂自空军学院结业。他迟疑满志登上宏伟壮观的卡拉狄加,但是却并未如愿驾驶性能出色的战机,反而被派去驾驶老旧粗笨的货物运输机。他的直部属属库克·法斯乔维克(本·考顿 Ben Cotton 饰)身心疲惫,可望尽早退休。这对格格不入的同伴很快接到号令,行将前往天蝎座履行一项货运使命,与之同业的还有负担奥秘使命的贝卡·凯利博士(Lili Bordán 饰)。
但是威廉他们很快发现,此次使命绝非如此简单,他们前行的路上布满凶恶……
◎获奖情况  
  第12届美国视觉结果协会奖(2014)
  最好广播节目视觉结果(提名) Heather McAuliff / Mike Gibson / 加里·赫策尔
  第50届美国声音结果协会奖(2014)
  电视电影/迷你剧最好音效(提名) Rick Bal

  1. Video
  2. ID                                       : 1
  3. Format                                   : AVC
  4. Format/Info                              : Advanced Video Codec
  5. Format profile                           : [email protected]
  6. Format settings, CABAC                   : Yes
  7. Format settings, ReFrames                : 4 frames
  8. Codec ID                                 : V_MPEG4/ISO/AVC
  9. Duration                                 : 1 h 33 min
  10. Bit rate                                 : 8 518 kb/s
  11. Width                                    : 1 920 pixels
  12. Height                                   : 1 080 pixels
  13. Display aspect ratio                     : 16:9
  14. Frame rate mode                          : Constant
  15. Frame rate                               : 23.976 (24000/1001) FPS
  16. Color space                              : YUV
  17. Chroma subsampling                       : 4:2:0
  18. Bit depth                                : 8 bits
  19. Scan type                                : Progressive
  20. Bits/(Pixel*Frame)                       : 0.171
  21. Stream size                              : 5.43 GiB (83%)
  22. Writing library                          : x264 core 129 r2245 bc13772
  23. Encoding settings                        : cabac=1 / ref=4 / deblock=1:0:0 / analyse=0x3:0x133 / me=umh / subme=7 / psy=1 / psy_rd=1.00:0.00 / mixed_ref=1 / me_range=16 / chroma_me=1 / trellis=1 / 8x8dct=1 / cqm=0 / deadzone=21,11 / fast_pskip=0 / chroma_qp_offset=-2 / threads=12 / lookahead_threads=2 / sliced_threads=0 / nr=0 / decimate=1 / interlaced=0 / bluray_compat=0 / constrained_intra=0 / bframes=3 / b_pyramid=2 / b_adapt=1 / b_bias=0 / direct=1 / weightb=1 / open_gop=0 / weightp=2 / keyint=250 / keyint_min=23 / scenecut=40 / intra_refresh=0 / rc_lookahead=40 / rc=2pass / mbtree=1 / bitrate=8518 / ratetol=1.0 / qcomp=0.60 / qpmin=0 / qpmax=69 / qpstep=4 / cplxblur=20.0 / qblur=0.5 / ip_ratio=1.40 / aq=1:1.00
  24. Language                                 : English
  25. Default                                  : Yes
  26. Forced                                   : No
  27. Audio
  28. ID                                       : 2
  29. Format                                   : DTS
  30. Format/Info                              : Digital Theater Systems
  31. Mode                                     : 16
  32. Format settings, Endianness              : Big
  33. Codec ID                                 : A_DTS
  34. Duration                                 : 1 h 33 min
  35. Bit rate mode                            : Constant
  36. Bit rate                                 : 1 509 kb/s
  37. Channel(s)                               : 6 channels
  38. Channel positions                        : Front: L C R, Side: L R, LFE
  39. Sampling rate                            : 48.0 kHz
  40. Frame rate                               : 93.750 FPS (512 spf)
  41. Bit depth                                : 24 bits
  42. Compression mode                         : Lossy
  43. Stream size                              : 1 010 MiB (15%)
  44. Title                                    : DTS
  45. Language                                 : English
  46. Default                                  : Yes
  47. Forced                                   : No
  48. Text
  49. ID                                       : 3
  50. Format                                   : UTF-8
  51. Codec ID                                 : S_TEXT/UTF8
  52. Codec ID/Info                            : UTF-8 Plain Text
  53. Title                                    : English
  54. Language                                 : English
  55. Default                                  : No
  56. Forced                                   : No
  57. Menu
  58. 00:00:00.000                             : en:00:00:00.000
  59. 00:05:24.199                             : en:00:05:24.199
  60. 00:11:34.360                             : en:00:11:34.360
  61. 00:15:28.928                             : en:00:15:28.928
  62. 00:21:51.602                             : en:00:21:51.602
  63. 00:26:45.604                             : en:00:26:45.604
  64. 00:33:51.613                             : en:00:33:51.613
  65. 00:36:51.334                             : en:00:36:51.334
  66. 00:41:12.762                             : en:00:41:12.762
  67. 00:46:37.753                             : en:00:46:37.753
  68. 00:49:48.277                             : en:00:49:48.277
  69. 00:53:15.192                             : en:00:53:15.192
  70. 00:58:18.453                             : en:00:58:18.453
  71. 01:05:44.899                             : en:01:05:44.899
  72. 01:09:13.733                             : en:01:09:13.733
  73. 01:13:07.008                             : en:01:13:07.008
  74. 01:15:40.995                             : en:01:15:40.995
  75. 01:20:14.727                             : en:01:20:14.727
  76. 01:24:26.979                             : en:01:24:26.979
  77. 01:29:41.251                             : en:01:29:41.251
复制代码









                                       
                                       

                                       
                                       
                                       




回复

使用道具 举报

懒得打字嘛,点击右侧快捷回复 【右侧内容,后台自定义】
您需要登录后才可以回帖 登录 | 立即加入

本版积分规则

Archiver| |网站地图

Copyright © 2024 Comsenz Inc. Powered by 蓝光电影网

本站内容由用户自主分享和转载自互联网,转载目的在于传递更多信息,并不代表本网赞同其观点和对其真实性负责。

如有侵权、违反国家法律政策行为,请联系我们,我们会第一时间及时清除和处理!

举报反馈邮箱:4k1080.com@gmail.com

快速回复 返回顶部 返回列表