找回密码

查看: 2214|回复: 0

[动作] 濒危物种 Endangered.Species.2021.1080p.BluRay.REMUX.AVC.DTS-HD.MA.5.1-FGT 28.47GB

[复制链接]
蓝光币
2048
发表于 2021-5-31 20:57:25 | 显示全部楼层 |阅读模式


◎译  名 濒危物种
◎片  名 Endangered Species
◎年  代 2021
◎产  地 美国
◎类  别 行动 / 惊悚
◎语  言 英语
◎上映日期 2021-05-28(美国)
◎豆瓣评分 4.7/10 from 86 users
◎豆瓣链接 https://movie.douban.com/subject/35435437/
◎片  长 101分钟
◎编  剧 Paul Chronnell
◎主  演 菲利普·文切斯特 Philip Winchester
       迈克尔·约翰斯顿 Michael Johnston
       克里斯·费舍 Chris Fisher
       杰瑞·奥康奈尔 Jerry O'Connell
       丽贝卡·罗梅恩 Rebecca Romijn
◎标  签 美国 | 2021 | 惊悚 | 冒险 | 美国电影 | 犯罪 | 动保 | 行动
◎简  介


  ENDANGERED SPECIES is an intense, action packed survival-adventure about a wealthy American family who travel to the vast African wilderness of Kenya hoping for a dream vacation filled with excitement, bonding and a chance to fix the growing rifts within their family. But when their safari vehicle is attacked by a rhino protecting her calf, the family is left stranded miles from help and their dream vacation turns into a nightmarish struggle for survival in a world where they are the bottom of the food chain.
  1. Video
  2. ID                                       : 1
  3. ID in the original source medium         : 4113 (0x1011)
  4. Format                                   : AVC
  5. Format/Info                              : Advanced Video Codec
  6. Format profile                           : [email protected]
  7. Format settings                          : CABAC / 4 Ref Frames
  8. Format settings, CABAC                   : Yes
  9. Format settings, Reference frames        : 4 frames
  10. Codec ID                                 : V_MPEG4/ISO/AVC
  11. Duration                                 : 1 h 41 min
  12. Bit rate mode                            : Variable
  13. Bit rate                                 : 35.8 Mb/s
  14. Maximum bit rate                         : 37.0 Mb/s
  15. Width                                    : 1 920 pixels
  16. Height                                   : 1 080 pixels
  17. Display aspect ratio                     : 16:9
  18. Frame rate mode                          : Constant
  19. Frame rate                               : 23.976 (24000/1001/189150) FPS
  20. Color space                              : YUV
  21. Chroma subsampling                       : 4:2:0
  22. Bit depth                                : 8 bits
  23. Scan type                                : Progressive
  24. Bits/(Pixel*Frame)                       : 0.720
  25. Stream size                              : 25.3 GiB (89%)
  26. Language                                 : English
  27. Default                                  : No
  28. Forced                                   : No
  29. Original source medium                   : Blu-ray
  30. Audio #1
  31. ID                                       : 2
  32. ID in the original source medium         : 4352 (0x1100)
  33. Format                                   : DTS XLL
  34. Format/Info                              : Digital Theater Systems
  35. Commercial name                          : DTS-HD Master Audio
  36. Codec ID                                 : A_DTS
  37. Duration                                 : 1 h 41 min
  38. Bit rate mode                            : Variable
  39. Bit rate                                 : 4 040 kb/s
  40. Channel(s)                               : 6 channels
  41. Channel layout                           : C L R Ls Rs LFE
  42. Sampling rate                            : 48.0 kHz
  43. Frame rate                               : 93.750 FPS (512 SPF)
  44. Bit depth                                : 24 bits
  45. Compression mode                         : Lossless
  46. Stream size                              : 2.85 GiB (10%)
  47. Title                                    : DTS-HD MA 5.1
  48. Language                                 : English
  49. Default                                  : Yes
  50. Forced                                   : No
  51. Original source medium                   : Blu-ray
  52. Audio #2
  53. ID                                       : 3
  54. ID in the original source medium         : 4353 (0x1101)
  55. Format                                   : AC-3
  56. Format/Info                              : Audio Coding 3
  57. Commercial name                          : Dolby Digital
  58. Codec ID                                 : A_AC3
  59. Duration                                 : 1 h 41 min
  60. Bit rate mode                            : Constant
  61. Bit rate                                 : 192 kb/s
  62. Channel(s)                               : 2 channels
  63. Channel layout                           : L R
  64. Sampling rate                            : 48.0 kHz
  65. Frame rate                               : 31.250 FPS (1536 SPF)
  66. Compression mode                         : Lossy
  67. Stream size                              : 139 MiB (0%)
  68. Title                                    : DD 2.0
  69. Language                                 : English
  70. Service kind                             : Complete Main
  71. Default                                  : No
  72. Forced                                   : No
  73. Original source medium                   : Blu-ray
  74. Audio #3
  75. ID                                       : 4
  76. ID in the original source medium         : 4354 (0x1102)
  77. Format                                   : AC-3
  78. Format/Info                              : Audio Coding 3
  79. Commercial name                          : Dolby Digital
  80. Codec ID                                 : A_AC3
  81. Duration                                 : 1 h 41 min
  82. Bit rate mode                            : Constant
  83. Bit rate                                 : 192 kb/s
  84. Channel(s)                               : 2 channels
  85. Channel layout                           : L R
  86. Sampling rate                            : 48.0 kHz
  87. Frame rate                               : 31.250 FPS (1536 SPF)
  88. Compression mode                         : Lossy
  89. Stream size                              : 139 MiB (0%)
  90. Title                                    : DD 2.0
  91. Language                                 : English
  92. Service kind                             : Complete Main
  93. Default                                  : No
  94. Forced                                   : No
  95. Original source medium                   : Blu-ray
  96. Text #1
  97. ID                                       : 5
  98. Format                                   : UTF-8
  99. Codec ID                                 : S_TEXT/UTF8
  100. Codec ID/Info                            : UTF-8 Plain Text
  101. Duration                                 : 1 h 33 min
  102. Bit rate                                 : 66 b/s
  103. Count of elements                        : 1491
  104. Stream size                              : 45.6 KiB (0%)
  105. Title                                    : SRT
  106. Language                                 : English
  107. Default                                  : Yes
  108. Forced                                   : No
  109. Text #2
  110. ID                                       : 6
  111. ID in the original source medium         : 4608 (0x1200)
  112. Format                                   : PGS
  113. Muxing mode                              : zlib
  114. Codec ID                                 : S_HDMV/PGS
  115. Codec ID/Info                            : Picture based subtitle format used on BDs/HD-DVDs
  116. Duration                                 : 1 h 33 min
  117. Bit rate                                 : 47.2 kb/s
  118. Count of elements                        : 3424
  119. Stream size                              : 31.7 MiB (0%)
  120. Language                                 : English
  121. Default                                  : No
  122. Forced                                   : No
  123. Original source medium                   : Blu-ray
  124. Text #3
  125. ID                                       : 7
  126. ID in the original source medium         : 4609 (0x1201)
  127. Format                                   : PGS
  128. Muxing mode                              : zlib
  129. Codec ID                                 : S_HDMV/PGS
  130. Codec ID/Info                            : Picture based subtitle format used on BDs/HD-DVDs
  131. Duration                                 : 1 h 39 min
  132. Bit rate                                 : 34.7 kb/s
  133. Count of elements                        : 2796
  134. Stream size                              : 24.7 MiB (0%)
  135. Language                                 : Spanish
  136. Default                                  : No
  137. Forced                                   : No
  138. Original source medium                   : Blu-ray
  139. Text #4
  140. ID                                       : 8
  141. ID in the original source medium         : 4610 (0x1202)
  142. Format                                   : PGS
  143. Muxing mode                              : zlib
  144. Codec ID                                 : S_HDMV/PGS
  145. Codec ID/Info                            : Picture based subtitle format used on BDs/HD-DVDs
  146. Duration                                 : 1 h 38 min
  147. Bit rate                                 : 36.3 kb/s
  148. Count of elements                        : 2882
  149. Stream size                              : 25.6 MiB (0%)
  150. Language                                 : Portuguese
  151. Default                                  : No
  152. Forced                                   : No
  153. Original source medium                   : Blu-ray
  154. Menu
  155. 00:00:00.000                             : Chapter 01
  156. 00:06:56.499                             : Chapter 02
  157. 00:12:30.875                             : Chapter 03
  158. 00:18:54.258                             : Chapter 04
  159. 00:24:41.980                             : Chapter 05
  160. 00:32:15.433                             : Chapter 06
  161. 00:38:27.722                             : Chapter 07
  162. 00:48:03.338                             : Chapter 08
  163. 00:52:25.934                             : Chapter 09
  164. 00:56:25.590                             : Chapter 10
  165. 01:03:48.991                             : Chapter 11
  166. 01:08:07.708                             : Chapter 12
  167. 01:12:27.092                             : Chapter 13
  168. 01:23:06.648                             : Chapter 14
  169. 01:27:58.690                             : Chapter 15
  170. 01:33:29.937                             : Chapter 16
复制代码







                                       
                                       

                                       
                                       
                                       




回复

使用道具 举报

懒得打字嘛,点击右侧快捷回复 【右侧内容,后台自定义】
您需要登录后才可以回帖 登录 | 立即加入

本版积分规则

Archiver| |网站地图

Copyright © 2024 Comsenz Inc. Powered by 蓝光电影网

本站内容由用户自主分享和转载自互联网,转载目的在于传递更多信息,并不代表本网赞同其观点和对其真实性负责。

如有侵权、违反国家法律政策行为,请联系我们,我们会第一时间及时清除和处理!

举报反馈邮箱:4k1080.com@gmail.com

快速回复 返回顶部 返回列表