找回密码

查看: 1093|回复: 0

[动作] 死亡之女/死亡女神 Lady.Death.2004.1080p.BluRay.x264.DTS-FGT 6.93GB

[复制链接]
蓝光币
2039
发表于 2019-7-23 22:40:40 | 显示全部楼层 |阅读模式


◎译  名 灭亡之女 / 灭亡女神
◎片  名 Lady Death
◎年  代 2004
◎产  地 美国
◎类  别 行动 / 动画 / 可骇
◎语  言 英语
◎上映日期 2004-10-05
◎IMDb评分  5.3/10 from 1100 users
◎IMDb链接  http://www.imdb.com/title/tt0354690
◎豆瓣评分 5.3/10 from 70 users
◎豆瓣链接 https://movie.douban.com/subject/3067856/
◎导  演 Andy Orjuela
◎标  签 动画 | 美国 | 欧美动画 | 行动 | 灭亡之女 | 动画电影 | 魔幻 | 1
◎简  介  
  Hope(Lady Death本名)诞生于中世纪,母亲Marion是维京人,后来被父亲Matthais接到欧洲中部。Matthais是个残暴无情的领主,他母亲很快在疾苦中死去。Hope曾亲眼目击他父亲讲人的灵魂献祭给恶魔。为了扩大战争,Matthais不竭征兵,其中包括Hope的朋友Niccolo。战争竣事后,新兵全数战死,瘟疫起头舒展。很快,人群里起头盛传Matthias利用巫术等消息。
很快,当地的牧师召集了一帮愤慨的人群冲进Matthias的城堡中,正都雅见Matthias在向恶魔进贡,他们杀死了Matthias,Matthais却感激他们,他的灵魂进入天堂,成了天堂的领主,管辖他送进天堂的灵魂。随后,Hope被抓,遭到父亲的连累,被以女巫罪火刑。
Hope不甘这样死去,利用了她父亲与天堂交换时用的咒语,将她传送到了天堂。
进入天堂后,很快就被她“父亲”的手下俘获,并被押送到她父亲在天堂的新城堡里。还见到了已经出错了的Niccolo。
随后被他父亲扔入深渊,被两头狼攻击,在她击退它们以后,很快它们便臣服于她。随后她又碰到了一样冤仇Matthais的天堂铁匠Cremator,两人计划协力应战Matthais……
  1. Video
  2. ID                                       : 1
  3. Format                                   : AVC
  4. Format/Info                              : Advanced Video Codec
  5. Format profile                           : [email protected]
  6. Format settings                          : CABAC / 4 Ref Frames
  7. Format settings, CABAC                   : Yes
  8. Format settings, Reference frames        : 4 frames
  9. Codec ID                                 : V_MPEG4/ISO/AVC
  10. Duration                                 : 1 h 16 min
  11. Bit rate                                 : 11.5 Mb/s
  12. Width                                    : 1 920 pixels
  13. Height                                   : 1 080 pixels
  14. Display aspect ratio                     : 16:9
  15. Frame rate mode                          : Constant
  16. Frame rate                               : 23.976 (24000/1001) FPS
  17. Color space                              : YUV
  18. Chroma subsampling                       : 4:2:0
  19. Bit depth                                : 8 bits
  20. Scan type                                : Progressive
  21. Bits/(Pixel*Frame)                       : 0.231
  22. Stream size                              : 6.13 GiB (88%)
  23. Title                                    : Lady.Death.2004.1080p.BluRay.x264.DTS-FGT
  24. Writing library                          : x264 core 148 r2795M aaa9aa8
  25. Encoding settings                        : cabac=1 / ref=4 / deblock=1:1:1 / analyse=0x3:0x113 / me=umh / subme=8 / psy=1 / psy_rd=0.50:0.00 / mixed_ref=1 / me_range=32 / chroma_me=1 / trellis=2 / 8x8dct=1 / cqm=0 / deadzone=21,11 / fast_pskip=1 / chroma_qp_offset=-2 / threads=34 / lookahead_threads=3 / sliced_threads=0 / nr=0 / decimate=1 / interlaced=0 / bluray_compat=0 / constrained_intra=0 / bframes=3 / b_pyramid=2 / b_adapt=1 / b_bias=0 / direct=3 / weightb=1 / open_gop=0 / weightp=2 / keyint=240 / keyint_min=24 / scenecut=40 / intra_refresh=0 / rc_lookahead=50 / rc=2pass / mbtree=1 / bitrate=11500 / ratetol=1.0 / qcomp=0.60 / qpmin=0 / qpmax=69 / qpstep=4 / cplxblur=20.0 / qblur=0.5 / vbv_maxrate=31250 / vbv_bufsize=31250 / nal_hrd=none / filler=0 / ip_ratio=1.40 / aq=3:0.60
  26. Language                                 : English
  27. Default                                  : Yes
  28. Forced                                   : No
  29. Audio
  30. ID                                       : 2
  31. Format                                   : DTS
  32. Format/Info                              : Digital Theater Systems
  33. Codec ID                                 : A_DTS
  34. Duration                                 : 1 h 16 min
  35. Bit rate mode                            : Constant
  36. Bit rate                                 : 1 509 kb/s
  37. Channel(s)                               : 6 channels
  38. Channel layout                           : C L R Ls Rs LFE
  39. Sampling rate                            : 48.0 kHz
  40. Frame rate                               : 93.750 FPS (512 SPF)
  41. Bit depth                                : 24 bits
  42. Compression mode                         : Lossy
  43. Stream size                              : 824 MiB (12%)
  44. Title                                    : Lady.Death.2004.1080p.BluRay.x264.DTS-FGT
  45. Language                                 : English
  46. Default                                  : Yes
  47. Forced                                   : No
  48. Text
  49. ID                                       : 3
  50. Format                                   : UTF-8
  51. Codec ID                                 : S_TEXT/UTF8
  52. Codec ID/Info                            : UTF-8 Plain Text
  53. Duration                                 : 1 h 11 min
  54. Bit rate                                 : 42 b/s
  55. Count of elements                        : 862
  56. Stream size                              : 22.2 KiB (0%)
  57. Language                                 : English
  58. Default                                  : Yes
  59. Forced                                   : No
  60. Menu
  61. 00:00:00.000                             : en:Chapter 01
  62. 00:02:47.959                             : en:Chapter 02
  63. 00:07:30.742                             : en:Chapter 03
  64. 00:14:09.932                             : en:Chapter 04
  65. 00:16:34.702                             : en:Chapter 05
  66. 00:18:56.594                             : en:Chapter 06
  67. 00:21:52.228                             : en:Chapter 07
  68. 00:25:51.967                             : en:Chapter 08
  69. 00:32:55.724                             : en:Chapter 09
  70. 00:38:25.220                             : en:Chapter 10
  71. 00:42:34.510                             : en:Chapter 11
  72. 00:45:08.664                             : en:Chapter 12
  73. 00:46:26.075                             : en:Chapter 13
  74. 00:49:23.252                             : en:Chapter 14
  75. 00:56:20.043                             : en:Chapter 15
  76. 01:00:16.196                             : en:Chapter 16
  77. 01:04:26.321                             : en:Chapter 17
  78. 01:12:59.584                             : en:Chapter 18
复制代码






                                       
                                       

                                       
                                       
                                       




回复

使用道具 举报

懒得打字嘛,点击右侧快捷回复 【右侧内容,后台自定义】
您需要登录后才可以回帖 登录 | 立即加入

本版积分规则

Archiver| |网站地图

Copyright © 2024 Comsenz Inc. Powered by 蓝光电影网

本站内容由用户自主分享和转载自互联网,转载目的在于传递更多信息,并不代表本网赞同其观点和对其真实性负责。

如有侵权、违反国家法律政策行为,请联系我们,我们会第一时间及时清除和处理!

举报反馈邮箱:4k1080.com@gmail.com

快速回复 返回顶部 返回列表