找回密码

查看: 941|回复: 0

[喜剧] 一年之痒/一年之约 I.Give.It.a.Year.2013.1080p.BluRay.X264-AMIABLE 6.56GB

[复制链接]
蓝光币
2039
发表于 2020-12-6 08:56:10 | 显示全部楼层 |阅读模式


◎译  名 一年之痒/一年之约/一年刻日/不羡鸳鸯/救婚365日(港)
◎片  名 I Give It a Year
◎年  代 2013
◎产  地 英国,法国
◎类  别 笑剧 / 恋爱
◎语  言 英语
◎上映日期 2013-02-08(英国)
◎IMDb评分  5.7/10 from 35440 users
◎IMDb链接  https://www.imdb.com/title/tt2244901/
◎豆瓣评分 6.4/10 from 5173 users
◎豆瓣链接 https://movie.douban.com/subject/10581376/
◎片  长 97分钟
◎导  演 丹·马泽 Dan Mazer
◎编  剧 丹·马泽 Dan Mazer
◎主  演 罗丝·伯恩 Rose Byrne
       拉菲·斯波 Rafe Spall
       亚历克斯·麦奎因 Alex Macqueen
       斯戴芬·莫昌特 Stephen Merchant
       珍·爱舍 Jane Asher
       明妮·德里弗 Minnie Driver
       杰森·弗莱明 Jason Flemyng
       奈格尔·派纳 Nigel Planer
       克莱尔·希金斯 Clare Higgins
       安娜·法瑞丝 Anna Faris
       奥利维娅·科尔曼 Olivia Colman
       Alisha Bailey
       凯莉·霍华德 Kerry Howard
       黛西·海格达 Daisy Haggard
       蒂姆·凯 Tim Key
       西蒙·贝克 Simon Baker
       约瑟夫·米尔森 Joseph Millson
       黛西·唐洛范 Daisy Donovan
       哈西娜·哈克 Hasina Haque
       潘多拉·科林 Pandora Colin
       安娜·斯科莱姆  Anna Skellern
       达斯汀·德姆瑞·伯恩斯 Dustin Demri-Burns
       李·阿斯奎斯-柯 Lee Asquith-Coe
       保罗·布莱克维尔 Paul Blackwell
       若昂·科斯塔·梅内塞斯 Jo?o Costa Menezes
       肖恩·索尔特 Shane Salter
       琼恩·史姑娘 June Smith
       森内姆·特米兹 Senem Temiz
       特伦斯·哈维 Terence Harvey
◎标  签 英国 | 笑剧 | 恋爱 | 2013 | 黑色诙谐 | 搞笑 | 萝丝·拜恩 | 西蒙贝克
◎简  介


  在一次偶然的集会上,具有大志壮志的铁娘子奈特(罗丝·拜恩 Rose Byrne 饰)与仍在艰难奋斗的苦作家乔治(拉菲·斯波 Rafe Spall 饰)一见钟情,敏捷坠入爱河,并在交往六个月后闪电成婚。但是使人意想不到的是,他们的婚姻却在短短的一年以后出现了裂缝。奇迹心极强的奈特没法忍受乔治在她工作时言语轻佻地打搅,而乔治则一向被困在他的写作瓶颈中不见起色,两人冲突渐渐激化,就在此时,乔治的前女友克洛伊(安娜·法瑞丝 Anna Faris 饰)再次出现,另一方面,奈特又遭到了掮客人盖(西蒙·贝克 Simon Baker 饰)的激烈追求,这对夫妻的关系眼看将至解体边沿,而他们的婚姻又将走向何方呢?
  1. Video
  2. ID                                       : 1
  3. Format                                   : AVC
  4. Format/Info                              : Advanced Video Codec
  5. Format profile                           : [email protected]
  6. Format settings                          : CABAC / 5 Ref Frames
  7. Format settings, CABAC                   : Yes
  8. Format settings, Reference frames        : 5 frames
  9. Codec ID                                 : V_MPEG4/ISO/AVC
  10. Duration                                 : 1 h 37 min
  11. Bit rate                                 : 8 874 kb/s
  12. Width                                    : 1 920 pixels
  13. Height                                   : 808 pixels
  14. Display aspect ratio                     : 2.40:1
  15. Frame rate mode                          : Constant
  16. Frame rate                               : 23.976 (24000/1001/189150) FPS
  17. Color space                              : YUV
  18. Chroma subsampling                       : 4:2:0
  19. Bit depth                                : 8 bits
  20. Scan type                                : Progressive
  21. Bits/(Pixel*Frame)                       : 0.239
  22. Stream size                              : 5.90 GiB (90%)
  23. Writing library                          : x264 core 133 r2334 a3ac64b
  24. Encoding settings                        : cabac=1 / ref=5 / deblock=1:0:0 / analyse=0x3:0x113 / me=umh / subme=8 / psy=1 / psy_rd=1.00:0.00 / mixed_ref=1 / me_range=16 / chroma_me=1 / trellis=1 / 8x8dct=1 / cqm=0 / deadzone=21,11 / fast_pskip=1 / chroma_qp_offset=-2 / threads=12 / lookahead_threads=2 / sliced_threads=0 / nr=0 / decimate=1 / interlaced=0 / bluray_compat=0 / constrained_intra=0 / bframes=3 / b_pyramid=2 / b_adapt=2 / b_bias=0 / direct=3 / weightb=1 / open_gop=0 / weightp=2 / keyint=240 / keyint_min=24 / scenecut=40 / intra_refresh=0 / rc_lookahead=50 / rc=2pass / mbtree=1 / bitrate=8874 / ratetol=1.0 / qcomp=0.60 / qpmin=0 / qpmax=69 / qpstep=4 / cplxblur=20.0 / qblur=0.5 / ip_ratio=1.40 / aq=1:1.00
  25. Language                                 : English
  26. Default                                  : Yes
  27. Forced                                   : No

  28. Audio
  29. ID                                       : 2
  30. Format                                   : DTS
  31. Format/Info                              : Digital Theater Systems
  32. Codec ID                                 : A_DTS
  33. Duration                                 : 1 h 37 min
  34. Bit rate mode                            : Constant
  35. Bit rate                                 : 768 kb/s
  36. Channel(s)                               : 6 channels
  37. Channel layout                           : C L R Ls Rs LFE
  38. Sampling rate                            : 48.0 kHz
  39. Frame rate                               : 93.750 FPS (512 SPF)
  40. Bit depth                                : 24 bits
  41. Compression mode                         : Lossy
  42. Stream size                              : 535 MiB (8%)
  43. Language                                 : English
  44. Default                                  : Yes
  45. Forced                                   : No

  46. Text #1
  47. ID                                       : 3
  48. Format                                   : UTF-8
  49. Codec ID                                 : S_TEXT/UTF8
  50. Codec ID/Info                            : UTF-8 Plain Text
  51. Title                                    : SDH
  52. Language                                 : English
  53. Default                                  : No
  54. Forced                                   : No

  55. Text #2
  56. ID                                       : 4
  57. Format                                   : UTF-8
  58. Codec ID                                 : S_TEXT/UTF8
  59. Codec ID/Info                            : UTF-8 Plain Text
  60. Language                                 : English
  61. Default                                  : No
  62. Forced                                   : No

  63. Menu
  64. 00:00:00.000                             : en:00:00:00.000
  65. 00:07:46.633                             : en:00:07:46.633
  66. 00:15:35.893                             : en:00:15:35.893
  67. 00:25:01.625                             : en:00:25:01.625
  68. 00:31:56.081                             : en:00:31:56.081
  69. 00:40:40.396                             : en:00:40:40.396
  70. 00:48:18.562                             : en:00:48:18.562
  71. 00:56:08.865                             : en:00:56:08.865
  72. 01:04:30.366                             : en:01:04:30.366
  73. 01:12:30.763                             : en:01:12:30.763
  74. 01:19:10.537                             : en:01:19:10.537
  75. 01:27:15.564                             : en:01:27:15.564
复制代码









                                       
                                       

                                       
                                       
                                       




回复

使用道具 举报

懒得打字嘛,点击右侧快捷回复 【右侧内容,后台自定义】
您需要登录后才可以回帖 登录 | 立即加入

本版积分规则

Archiver| |网站地图

Copyright © 2024 Comsenz Inc. Powered by 蓝光电影网

本站内容由用户自主分享和转载自互联网,转载目的在于传递更多信息,并不代表本网赞同其观点和对其真实性负责。

如有侵权、违反国家法律政策行为,请联系我们,我们会第一时间及时清除和处理!

举报反馈邮箱:4k1080.com@gmail.com

快速回复 返回顶部 返回列表