找回密码

查看: 3380|回复: 1

[动作] 碟中谍 Mission.Impossible.1996.REMASTERED.1080p.BluRay.REMUX.AVC.DTS-HD.MA.TrueHD.5.1-FGT 33.99GB

[复制链接]
蓝光币
2039
发表于 2021-5-28 09:10:02 | 显示全部楼层 |阅读模式


◎译  名 碟中谍/M:I/不成能的使命(台)/职业奸细队(港)
◎片  名 Mission: Impossible
◎年  代 1996
◎产  地 美国
◎类  别 行动 / 惊悚 / 冒险
◎语  言 英语,捷克语,乌克兰语,法语
◎上映日期 1996-05-22(美国)
◎豆瓣评分 8.2/10 from 221119 users
◎豆瓣链接 https://movie.douban.com/subject/1292484/
◎片  长 110 分钟
◎导  演 布莱恩·德·帕尔玛 Brian De Palma
◎编  剧 大卫·凯普 David Koepp / 罗伯特·汤 Robert Towne / 斯蒂文·泽里安 Steven Zaillian / 布鲁斯·盖勒 Bruce Geller
◎主  演 汤姆·克鲁斯 Tom Cruise
       强·沃特 Jon Voight
       艾曼纽·贝阿 Emmanuelle Béart
       亨利·科泽尼 Henry Czerny
       让·雷诺 Jean Reno
       文·瑞姆斯 Ving Rhames
       克里斯汀·斯科特·托马斯 Kristin Scott Thomas
       瓦妮莎·雷德格雷夫 Vanessa Redgrave
       茵格保加·达坤耐特 Ingeborga Dapkunaite
       瓦伦蒂娜·雅库尼亚 Valentina Yakunina
       马雷克·瓦苏特 Marek Vasut
       John McLaughlin
       罗尔夫·萨克森 Rolf Saxon
       卡雷尔·多布雷 Karel Dobry
       安德雷斯·魏斯涅夫斯基 Andreas Wisniewski
       Gaston Subert
       里科·罗斯 Ricco Ross
       Bob Friend
       安娜贝尔·穆利恩 Annabel Mullion
       加里克·哈根 Garrick Hagon
       Jirina Trebická
       山姆·道格拉斯 Sam Douglas
       奥莱加·费多罗 Olegar Fedoro
       大卫·施奈德 David Schneider
       海伦·林赛 Helen Lindsay
       兰德尔·保罗 Randall Paul
       迈克尔·罗杰斯 Michael Rogers
       劳拉·布鲁克 Laura Brook
       梅丽莎·纳奇布尔 Melissa Knatchbull
       扬·卡拉米特鲁 Ion Caramitru
       代尔·戴 Dale Dye
       马塞尔·尤勒斯 Marcel Iures
       基思·坎贝尔 Keith Campbell
       艾米利奥·艾斯特维兹 Emilio Estevez
       哈里·弗雷德尔 Harry Fielder
       约翰·诺尔 John Knoll
◎标  签 行动 | 奸细 | 典范 | 美国电影 | 特务 | 汤姆克鲁斯 | 1996 | 悬疑
◎简  介


  中情局获得情报,得知他们的奸细中出了一个叛徒,预备将中情局安插在东欧的奸细名单出售给本国奸细构造。在特领班目吉姆(乔恩?沃伊特 Jon Voight 饰)的策划下,伊森(汤姆?克鲁斯 Tom Cruise 饰)所住的一组奸细赶往了他们买卖的地址。
  
  岂料,当他们按计划赶到 时,却中了匿伏,一组人中除了伊森和吉姆的妻子克莱尔,其他队员都被杀戮。这时,伊森的账户无故端多出了12万美金。伊森成了内鬼的最大的怀疑犯。
  
  无法之下,伊森只能凭小我之力独闯龙潭虎穴去找出出售他们的内奸。他和本国特务构造的讨论人麦克斯获得联系后,答应帮麦克斯偷出中情局的特务名单以交换中情局内鬼的名字。
◎获奖情况
  第20届日本电影学院奖 ?(1997)
  最好外语片(提名)
  1. Video
  2. ID                                       : 1
  3. ID in the original source medium         : 4113 (0x1011)
  4. Format                                   : AVC
  5. Format/Info                              : Advanced Video Codec
  6. Format profile                           : [email protected]
  7. Format settings                          : CABAC / 4 Ref Frames
  8. Format settings, CABAC                   : Yes
  9. Format settings, Reference frames        : 4 frames
  10. Codec ID                                 : V_MPEG4/ISO/AVC
  11. Duration                                 : 1 h 50 min
  12. Bit rate mode                            : Variable
  13. Bit rate                                 : 33.7 Mb/s
  14. Maximum bit rate                         : 37.6 Mb/s
  15. Width                                    : 1 920 pixels
  16. Height                                   : 1 080 pixels
  17. Display aspect ratio                     : 16:9
  18. Frame rate mode                          : Constant
  19. Frame rate                               : 23.976 (24000/1001/189150) FPS
  20. Color space                              : YUV
  21. Chroma subsampling                       : 4:2:0
  22. Bit depth                                : 8 bits
  23. Scan type                                : Progressive
  24. Bits/(Pixel*Frame)                       : 0.678
  25. Stream size                              : 25.9 GiB (76%)
  26. Language                                 : English
  27. Default                                  : No
  28. Forced                                   : No
  29. Original source medium                   : Blu-ray
  30. Audio #1
  31. ID                                       : 2
  32. ID in the original source medium         : 4352 (0x1100)
  33. Format                                   : MLP FBA
  34. Format/Info                              : Meridian Lossless Packing FBA
  35. Commercial name                          : Dolby TrueHD
  36. Codec ID                                 : A_TRUEHD
  37. Duration                                 : 1 h 50 min
  38. Bit rate mode                            : Variable
  39. Bit rate                                 : 3 366 kb/s
  40. Maximum bit rate                         : 4 890 kb/s
  41. Channel(s)                               : 6 channels
  42. Channel layout                           : L R C LFE Ls Rs
  43. Sampling rate                            : 48.0 kHz
  44. Frame rate                               : 1 200.000 FPS (40 SPF)
  45. Bit depth                                : 24 bits
  46. Compression mode                         : Lossless
  47. Stream size                              : 2.59 GiB (8%)
  48. Title                                    : TrueHD 5.1
  49. Language                                 : English
  50. Default                                  : Yes
  51. Forced                                   : No
  52. Original source medium                   : Blu-ray
  53. Audio #2
  54. ID                                       : 3
  55. Format                                   : DTS XLL
  56. Format/Info                              : Digital Theater Systems
  57. Commercial name                          : DTS-HD Master Audio
  58. Codec ID                                 : A_DTS
  59. Duration                                 : 1 h 50 min
  60. Bit rate mode                            : Variable
  61. Bit rate                                 : 3 785 kb/s
  62. Channel(s)                               : 6 channels
  63. Channel layout                           : C L R Ls Rs LFE
  64. Sampling rate                            : 48.0 kHz
  65. Frame rate                               : 93.750 FPS (512 SPF)
  66. Bit depth                                : 24 bits
  67. Compression mode                         : Lossless
  68. Stream size                              : 2.91 GiB (9%)
  69. Title                                    : DTS-HD MA 5.1
  70. Language                                 : English
  71. Default                                  : No
  72. Forced                                   : No
  73. Audio #3
  74. ID                                       : 4
  75. ID in the original source medium         : 4352 (0x1100)
  76. Format                                   : AC-3
  77. Format/Info                              : Audio Coding 3
  78. Commercial name                          : Dolby Digital
  79. Codec ID                                 : A_AC3
  80. Duration                                 : 1 h 50 min
  81. Bit rate mode                            : Constant
  82. Bit rate                                 : 640 kb/s
  83. Channel(s)                               : 6 channels
  84. Channel layout                           : L R C LFE Ls Rs
  85. Sampling rate                            : 48.0 kHz
  86. Frame rate                               : 31.250 FPS (1536 SPF)
  87. Compression mode                         : Lossy
  88. Stream size                              : 504 MiB (1%)
  89. Title                                    : DD 5.1
  90. Language                                 : English
  91. Service kind                             : Complete Main
  92. Default                                  : No
  93. Forced                                   : No
  94. Original source medium                   : Blu-ray
  95. Audio #4
  96. ID                                       : 5
  97. ID in the original source medium         : 4353 (0x1101)
  98. Format                                   : AC-3
  99. Format/Info                              : Audio Coding 3
  100. Commercial name                          : Dolby Digital
  101. Codec ID                                 : A_AC3
  102. Duration                                 : 1 h 50 min
  103. Bit rate mode                            : Constant
  104. Bit rate                                 : 640 kb/s
  105. Channel(s)                               : 6 channels
  106. Channel layout                           : L R C LFE Ls Rs
  107. Sampling rate                            : 48.0 kHz
  108. Frame rate                               : 31.250 FPS (1536 SPF)
  109. Compression mode                         : Lossy
  110. Stream size                              : 504 MiB (1%)
  111. Title                                    : DD 5.1
  112. Language                                 : English
  113. Service kind                             : Complete Main
  114. Default                                  : No
  115. Forced                                   : No
  116. Original source medium                   : Blu-ray
  117. Audio #5
  118. ID                                       : 6
  119. ID in the original source medium         : 4354 (0x1102)
  120. Format                                   : AC-3
  121. Format/Info                              : Audio Coding 3
  122. Commercial name                          : Dolby Digital
  123. Codec ID                                 : A_AC3
  124. Duration                                 : 1 h 50 min
  125. Bit rate mode                            : Constant
  126. Bit rate                                 : 640 kb/s
  127. Channel(s)                               : 6 channels
  128. Channel layout                           : L R C LFE Ls Rs
  129. Sampling rate                            : 48.0 kHz
  130. Frame rate                               : 31.250 FPS (1536 SPF)
  131. Compression mode                         : Lossy
  132. Stream size                              : 504 MiB (1%)
  133. Title                                    : DD 5.1
  134. Language                                 : German
  135. Service kind                             : Complete Main
  136. Default                                  : No
  137. Forced                                   : No
  138. Original source medium                   : Blu-ray
  139. Audio #6
  140. ID                                       : 7
  141. ID in the original source medium         : 4355 (0x1103)
  142. Format                                   : AC-3
  143. Format/Info                              : Audio Coding 3
  144. Commercial name                          : Dolby Digital
  145. Codec ID                                 : A_AC3
  146. Duration                                 : 1 h 50 min
  147. Bit rate mode                            : Constant
  148. Bit rate                                 : 640 kb/s
  149. Channel(s)                               : 6 channels
  150. Channel layout                           : L R C LFE Ls Rs
  151. Sampling rate                            : 48.0 kHz
  152. Frame rate                               : 31.250 FPS (1536 SPF)
  153. Compression mode                         : Lossy
  154. Stream size                              : 504 MiB (1%)
  155. Title                                    : DD 5.1
  156. Language                                 : French
  157. Service kind                             : Complete Main
  158. Default                                  : No
  159. Forced                                   : No
  160. Original source medium                   : Blu-ray
  161. Audio #7
  162. ID                                       : 8
  163. ID in the original source medium         : 4356 (0x1104)
  164. Format                                   : AC-3
  165. Format/Info                              : Audio Coding 3
  166. Commercial name                          : Dolby Digital
  167. Codec ID                                 : A_AC3
  168. Duration                                 : 1 h 50 min
  169. Bit rate mode                            : Constant
  170. Bit rate                                 : 640 kb/s
  171. Channel(s)                               : 6 channels
  172. Channel layout                           : L R C LFE Ls Rs
  173. Sampling rate                            : 48.0 kHz
  174. Frame rate                               : 31.250 FPS (1536 SPF)
  175. Compression mode                         : Lossy
  176. Stream size                              : 504 MiB (1%)
  177. Title                                    : DD 5.1
  178. Language                                 : Japanese
  179. Service kind                             : Complete Main
  180. Default                                  : No
  181. Forced                                   : No
  182. Original source medium                   : Blu-ray
  183. Text #1
  184. ID                                       : 9
  185. Format                                   : UTF-8
  186. Codec ID                                 : S_TEXT/UTF8
  187. Codec ID/Info                            : UTF-8 Plain Text
  188. Duration                                 : 1 min 30 s
  189. Bit rate                                 : 30 b/s
  190. Count of elements                        : 20
  191. Stream size                              : 341 Bytes (0%)
  192. Title                                    : FORCED
  193. Language                                 : English
  194. Default                                  : No
  195. Forced                                   : No
  196. Text #2
  197. ID                                       : 10
  198. Format                                   : UTF-8
  199. Codec ID                                 : S_TEXT/UTF8
  200. Codec ID/Info                            : UTF-8 Plain Text
  201. Duration                                 : 1 h 45 min
  202. Bit rate                                 : 39 b/s
  203. Count of elements                        : 949
  204. Stream size                              : 30.6 KiB (0%)
  205. Language                                 : English
  206. Default                                  : No
  207. Forced                                   : No
  208. Text #3
  209. ID                                       : 11
  210. ID in the original source medium         : 4608 (0x1200)
  211. Format                                   : PGS
  212. Muxing mode                              : zlib
  213. Codec ID                                 : S_HDMV/PGS
  214. Codec ID/Info                            : Picture based subtitle format used on BDs/HD-DVDs
  215. Duration                                 : 1 h 45 min
  216. Bit rate                                 : 25.6 kb/s
  217. Count of elements                        : 1905
  218. Stream size                              : 19.3 MiB (0%)
  219. Language                                 : English
  220. Default                                  : No
  221. Forced                                   : No
  222. Original source medium                   : Blu-ray
  223. Text #4
  224. ID                                       : 12
  225. ID in the original source medium         : 4608 (0x1200)
  226. Format                                   : PGS
  227. Muxing mode                              : zlib
  228. Codec ID                                 : S_HDMV/PGS
  229. Codec ID/Info                            : Picture based subtitle format used on BDs/HD-DVDs
  230. Duration                                 : 1 min 30 s
  231. Bit rate                                 : 20.1 kb/s
  232. Count of elements                        : 40
  233. Stream size                              : 222 KiB (0%)
  234. Language                                 : English
  235. Default                                  : Yes
  236. Forced                                   : No
  237. Original source medium                   : Blu-ray
  238. Text #5
  239. ID                                       : 13
  240. ID in the original source medium         : 4609 (0x1201)
  241. Format                                   : PGS
  242. Muxing mode                              : zlib
  243. Codec ID                                 : S_HDMV/PGS
  244. Codec ID/Info                            : Picture based subtitle format used on BDs/HD-DVDs
  245. Duration                                 : 1 h 45 min
  246. Bit rate                                 : 28.9 kb/s
  247. Count of elements                        : 2209
  248. Stream size                              : 21.8 MiB (0%)
  249. Language                                 : English
  250. Default                                  : No
  251. Forced                                   : No
  252. Original source medium                   : Blu-ray
  253. Text #6
  254. ID                                       : 14
  255. ID in the original source medium         : 4610 (0x1202)
  256. Format                                   : PGS
  257. Muxing mode                              : zlib
  258. Codec ID                                 : S_HDMV/PGS
  259. Codec ID/Info                            : Picture based subtitle format used on BDs/HD-DVDs
  260. Duration                                 : 1 h 45 min
  261. Bit rate                                 : 25.4 kb/s
  262. Count of elements                        : 2010
  263. Stream size                              : 19.2 MiB (0%)
  264. Language                                 : German
  265. Default                                  : No
  266. Forced                                   : No
  267. Original source medium                   : Blu-ray
  268. Text #7
  269. ID                                       : 15
  270. ID in the original source medium         : 4610 (0x1202)
  271. Format                                   : PGS
  272. Muxing mode                              : zlib
  273. Codec ID                                 : S_HDMV/PGS
  274. Codec ID/Info                            : Picture based subtitle format used on BDs/HD-DVDs
  275. Duration                                 : 1 min 30 s
  276. Bit rate                                 : 21.3 kb/s
  277. Count of elements                        : 40
  278. Stream size                              : 236 KiB (0%)
  279. Language                                 : German
  280. Default                                  : No
  281. Forced                                   : No
  282. Original source medium                   : Blu-ray
  283. Text #8
  284. ID                                       : 16
  285. ID in the original source medium         : 4611 (0x1203)
  286. Format                                   : PGS
  287. Muxing mode                              : zlib
  288. Codec ID                                 : S_HDMV/PGS
  289. Codec ID/Info                            : Picture based subtitle format used on BDs/HD-DVDs
  290. Duration                                 : 1 h 49 min
  291. Bit rate                                 : 25.1 kb/s
  292. Count of elements                        : 2009
  293. Stream size                              : 19.7 MiB (0%)
  294. Language                                 : French
  295. Default                                  : No
  296. Forced                                   : No
  297. Original source medium                   : Blu-ray
  298. Text #9
  299. ID                                       : 17
  300. ID in the original source medium         : 4611 (0x1203)
  301. Format                                   : PGS
  302. Muxing mode                              : zlib
  303. Codec ID                                 : S_HDMV/PGS
  304. Codec ID/Info                            : Picture based subtitle format used on BDs/HD-DVDs
  305. Duration                                 : 1 h 40 min
  306. Bit rate                                 : 916 b/s
  307. Count of elements                        : 82
  308. Stream size                              : 671 KiB (0%)
  309. Language                                 : French
  310. Default                                  : No
  311. Forced                                   : No
  312. Original source medium                   : Blu-ray
  313. Text #10
  314. ID                                       : 18
  315. ID in the original source medium         : 4612 (0x1204)
  316. Format                                   : PGS
  317. Muxing mode                              : zlib
  318. Codec ID                                 : S_HDMV/PGS
  319. Codec ID/Info                            : Picture based subtitle format used on BDs/HD-DVDs
  320. Duration                                 : 1 h 45 min
  321. Bit rate                                 : 17.8 kb/s
  322. Count of elements                        : 1809
  323. Stream size                              : 13.4 MiB (0%)
  324. Language                                 : Japanese
  325. Default                                  : No
  326. Forced                                   : No
  327. Original source medium                   : Blu-ray
  328. Text #11
  329. ID                                       : 19
  330. ID in the original source medium         : 4613 (0x1205)
  331. Format                                   : PGS
  332. Muxing mode                              : zlib
  333. Codec ID                                 : S_HDMV/PGS
  334. Codec ID/Info                            : Picture based subtitle format used on BDs/HD-DVDs
  335. Duration                                 : 1 h 31 min
  336. Bit rate                                 : 697 b/s
  337. Count of elements                        : 92
  338. Stream size                              : 465 KiB (0%)
  339. Language                                 : Japanese
  340. Default                                  : No
  341. Forced                                   : No
  342. Original source medium                   : Blu-ray
  343. Menu
  344. 00:00:00.000                             : Chapter 01
  345. 00:03:00.305                             : Chapter 02
  346. 00:10:42.224                             : Chapter 03
  347. 00:26:43.435                             : Chapter 04
  348. 00:32:19.395                             : Chapter 05
  349. 00:39:49.762                             : Chapter 06
  350. 00:49:38.475                             : Chapter 07
  351. 00:55:44.966                             : Chapter 08
  352. 01:12:25.049                             : Chapter 09
  353. 01:18:33.792                             : Chapter 10
  354. 01:28:13.955                             : Chapter 11
  355. 01:38:06.046                             : Chapter 12
  356. 01:44:02.110                             : Chapter 13
复制代码




                                       
                                       

                                       
                                       
                                       




相关帖子

回复

使用道具 举报

蓝光币
76
发表于 2021-8-24 21:53:20 | 显示全部楼层
谢谢楼主分享!
回复

使用道具 举报

懒得打字嘛,点击右侧快捷回复 【右侧内容,后台自定义】
您需要登录后才可以回帖 登录 | 立即加入

本版积分规则

Archiver| |网站地图

Copyright © 2024 Comsenz Inc. Powered by 蓝光电影网

本站内容由用户自主分享和转载自互联网,转载目的在于传递更多信息,并不代表本网赞同其观点和对其真实性负责。

如有侵权、违反国家法律政策行为,请联系我们,我们会第一时间及时清除和处理!

举报反馈邮箱:4k1080.com@gmail.com

快速回复 返回顶部 返回列表