找回密码

查看: 2555|回复: 1

[动作] 混沌行走/噪反 Chaos.Walking.2021.1080p.BluRay.REMUX.AVC.DTS-HD.MA.TrueHD.7.1.Atmos-FGT 32.57GB

[复制链接]
蓝光币
2048
发表于 2021-5-24 09:07:42 | 显示全部楼层 |阅读模式


◎译  名 混沌行走/噪反(台)/混沌安步/读心哗变(港)
◎片  名 Chaos Walking
◎年  代 2021
◎产  地 美国,加拿大
◎类  别 行动 / 科幻 / 冒险
◎语  言 英语
◎上映日期 2021(中国大陆) / 2021-03-05(美国)
◎豆瓣评分 5.2/10 from 3094 users
◎豆瓣链接 https://movie.douban.com/subject/6874475/
◎片  长 109分钟
◎导  演 道格·里曼 Doug Liman
◎编  剧 帕特里克·内斯 Patrick Ness / 克里斯托弗·D·福特 Christopher D. Ford / 林赛·比尔 Lindsey Beer / 约翰·李·汉考克 John Lee Hancock / 加里·斯皮内利 Gary Spinelli / 安德鲁·戈特利布 Andrew Gottlieb / 大卫·罗森 David Rosen
◎主  演 汤姆·赫兰德 Tom Holland
       黛西·雷德利 Daisy Ridley
       德米安·比齐尔 Demián Bichir
       大卫·奥伊罗 David Oyelowo
       科特·萨特 Kurt Sutter
       辛西娅·艾莉佛 Cynthia Erivo
       贝瑟妮·安妮·林德 Bethany Anne Lind
       麦斯·米科尔森 Mads Mikkelsen
       尼克·乔纳斯 Nick Jonas
       雷·迈克金农 Ray McKinnon
       文森特·莱克莱尔 Vincent Leclerc
       布兰·克洛卡雷尔 Blane Crockarell
       蒂龙·本斯金 Tyrone Benskin
       弗兰克·方丹 Frank Fontaine
       帕特里克·加洛 Patrick Garrow
       玛丽莲·迪恩-罗比齐 Mylène Dinh-Robic
       朱利安·瑞钦斯 Julian Richings
       迈克尔·戴森 Michael Dyson
       马克斯韦尔·麦卡比-洛克斯 Maxwell McCabe-Lokos
       迈克尔·亚穆什 Michael Yarmush
       布莱恩·亚历山大 Brian Alexander
       奥妮克·阿德莉 Olunike Adeliyi
       克劳迪娅·贝索 Claudia Besso
       奥斯卡·贾恩那达 óscar Jaenada
       塔拉·尼科迪莫 Tara Nicodemo
       哈里森·奥斯特菲尔德 Harrison Osterfield
       兰博基尼 Lamborghini
       维斯顿 Wiston
◎标  签 科幻 | 美国 | 2021 | 冒险 | 小说改编 | 青春 | 反乌托邦 | 剧情
◎简  介


  人类在与地球类似的悠远外星建立了新故里,但这个星球上却有一种病毒,汉子传染后可以听到其他人和动物的心声,每个汉子脑子里的想法都能被他人听到,人与人之间不存在隐私,新星球上的普伦提司镇的汉子们就不胜忍受自己的想法被人闻声。
  
  托德·赫维特(汤姆·赫兰德 饰)是诞生于这座小镇的 男孩,他的认知中小镇没有女人是由于该星球土著居民蓝光兽故里被人类加害时故意让人类传染了乐音病毒,他们还杀光了一切女性。托德对此深信不疑,直到他碰到一个女孩。
  
  托德在小镇四周的森林里碰到了一个叫维奥拉(黛西·雷德利 饰)的女孩,她来自悠远的地球,她的飞船因故坠毁在森林里,普伦提司镇的镇长在得知这个消息后立即展开对他俩的追杀,托德为了庇护女孩维奥拉只好一路出逃,起头了一段他意想不到且危机重重的星球冒险。
  1. Video
  2. ID                                       : 1
  3. ID in the original source medium         : 4113 (0x1011)
  4. Format                                   : AVC
  5. Format/Info                              : Advanced Video Codec
  6. Format profile                           : [email protected]
  7. Format settings                          : CABAC / 4 Ref Frames
  8. Format settings, CABAC                   : Yes
  9. Format settings, Reference frames        : 4 frames
  10. Codec ID                                 : V_MPEG4/ISO/AVC
  11. Duration                                 : 1 h 48 min
  12. Bit rate mode                            : Variable
  13. Bit rate                                 : 32.6 Mb/s
  14. Maximum bit rate                         : 36.5 Mb/s
  15. Width                                    : 1 920 pixels
  16. Height                                   : 1 080 pixels
  17. Display aspect ratio                     : 16:9
  18. Frame rate mode                          : Constant
  19. Frame rate                               : 23.976 (24000/1001/189150) FPS
  20. Color space                              : YUV
  21. Chroma subsampling                       : 4:2:0
  22. Bit depth                                : 8 bits
  23. Scan type                                : Progressive
  24. Bits/(Pixel*Frame)                       : 0.655
  25. Stream size                              : 24.8 GiB (76%)
  26. Language                                 : English
  27. Default                                  : No
  28. Forced                                   : No
  29. Original source medium                   : Blu-ray
  30. Audio #1
  31. ID                                       : 2
  32. ID in the original source medium         : 4352 (0x1100)
  33. Format                                   : MLP FBA 16-ch
  34. Format/Info                              : Meridian Lossless Packing FBA with 16-channel presentation
  35. Commercial name                          : Dolby TrueHD with Dolby Atmos
  36. Codec ID                                 : A_TRUEHD
  37. Duration                                 : 1 h 48 min
  38. Bit rate mode                            : Variable
  39. Bit rate                                 : 4 405 kb/s
  40. Maximum bit rate                         : 6 912 kb/s
  41. Channel(s)                               : 8 channels
  42. Channel layout                           : L R C LFE Ls Rs Lb Rb
  43. Sampling rate                            : 48.0 kHz
  44. Frame rate                               : 1 200.000 FPS (40 SPF)
  45. Bit depth                                : 24 bits
  46. Compression mode                         : Lossless
  47. Stream size                              : 3.35 GiB (10%)
  48. Title                                    : TrueHD 7.1 Atmos
  49. Language                                 : English
  50. Default                                  : Yes
  51. Forced                                   : No
  52. Original source medium                   : Blu-ray
  53. Number of dynamic objects                : 11
  54. Bed channel count                        : 1 channel
  55. Bed channel configuration                : LFE
  56. Audio #2
  57. ID                                       : 3
  58. Format                                   : DTS XLL
  59. Format/Info                              : Digital Theater Systems
  60. Commercial name                          : DTS-HD Master Audio
  61. Codec ID                                 : A_DTS
  62. Duration                                 : 1 h 48 min
  63. Bit rate mode                            : Variable
  64. Bit rate                                 : 4 051 kb/s
  65. Channel(s)                               : 8 channels
  66. Channel layout                           : C L R LFE Lb Rb Lss Rss
  67. Sampling rate                            : 48.0 kHz
  68. Frame rate                               : 93.750 FPS (512 SPF)
  69. Bit depth                                : 24 bits
  70. Compression mode                         : Lossless
  71. Stream size                              : 3.08 GiB (9%)
  72. Title                                    : DTS-HD MA 7.1
  73. Language                                 : English
  74. Default                                  : No
  75. Forced                                   : No
  76. Audio #3
  77. ID                                       : 4
  78. ID in the original source medium         : 4352 (0x1100)
  79. Format                                   : AC-3
  80. Format/Info                              : Audio Coding 3
  81. Commercial name                          : Dolby Digital
  82. Format settings                          : Dolby Surround EX
  83. Codec ID                                 : A_AC3
  84. Duration                                 : 1 h 48 min
  85. Bit rate mode                            : Constant
  86. Bit rate                                 : 640 kb/s
  87. Channel(s)                               : 6 channels
  88. Channel layout                           : L R C LFE Ls Rs
  89. Sampling rate                            : 48.0 kHz
  90. Frame rate                               : 31.250 FPS (1536 SPF)
  91. Compression mode                         : Lossy
  92. Stream size                              : 499 MiB (1%)
  93. Title                                    : DD 5.1
  94. Language                                 : English
  95. Service kind                             : Complete Main
  96. Default                                  : No
  97. Forced                                   : No
  98. Original source medium                   : Blu-ray
  99. Audio #4
  100. ID                                       : 5
  101. ID in the original source medium         : 4353 (0x1101)
  102. Format                                   : AC-3
  103. Format/Info                              : Audio Coding 3
  104. Commercial name                          : Dolby Digital
  105. Codec ID                                 : A_AC3
  106. Duration                                 : 1 h 48 min
  107. Bit rate mode                            : Constant
  108. Bit rate                                 : 192 kb/s
  109. Channel(s)                               : 2 channels
  110. Channel layout                           : L R
  111. Sampling rate                            : 48.0 kHz
  112. Frame rate                               : 31.250 FPS (1536 SPF)
  113. Compression mode                         : Lossy
  114. Stream size                              : 150 MiB (0%)
  115. Title                                    : DD 2.0
  116. Language                                 : English
  117. Service kind                             : Complete Main
  118. Default                                  : No
  119. Forced                                   : No
  120. Original source medium                   : Blu-ray
  121. Audio #5
  122. ID                                       : 6
  123. ID in the original source medium         : 4354 (0x1102)
  124. Format                                   : AC-3
  125. Format/Info                              : Audio Coding 3
  126. Commercial name                          : Dolby Digital
  127. Codec ID                                 : A_AC3
  128. Duration                                 : 1 h 48 min
  129. Bit rate mode                            : Constant
  130. Bit rate                                 : 640 kb/s
  131. Channel(s)                               : 6 channels
  132. Channel layout                           : L R C LFE Ls Rs
  133. Sampling rate                            : 48.0 kHz
  134. Frame rate                               : 31.250 FPS (1536 SPF)
  135. Compression mode                         : Lossy
  136. Stream size                              : 499 MiB (1%)
  137. Title                                    : DD 5.1
  138. Language                                 : Spanish
  139. Service kind                             : Complete Main
  140. Default                                  : No
  141. Forced                                   : No
  142. Original source medium                   : Blu-ray
  143. Audio #6
  144. ID                                       : 7
  145. ID in the original source medium         : 4355 (0x1103)
  146. Format                                   : AC-3
  147. Format/Info                              : Audio Coding 3
  148. Commercial name                          : Dolby Digital
  149. Codec ID                                 : A_AC3
  150. Duration                                 : 1 h 48 min
  151. Bit rate mode                            : Constant
  152. Bit rate                                 : 192 kb/s
  153. Channel(s)                               : 2 channels
  154. Channel layout                           : L R
  155. Sampling rate                            : 48.0 kHz
  156. Frame rate                               : 31.250 FPS (1536 SPF)
  157. Compression mode                         : Lossy
  158. Stream size                              : 150 MiB (0%)
  159. Title                                    : DD 2.0
  160. Language                                 : English
  161. Service kind                             : Complete Main
  162. Default                                  : No
  163. Forced                                   : No
  164. Original source medium                   : Blu-ray
  165. Text #1
  166. ID                                       : 8
  167. Format                                   : UTF-8
  168. Codec ID                                 : S_TEXT/UTF8
  169. Codec ID/Info                            : UTF-8 Plain Text
  170. Duration                                 : 1 h 37 min
  171. Bit rate                                 : 53 b/s
  172. Count of elements                        : 1453
  173. Stream size                              : 38.1 KiB (0%)
  174. Title                                    : English-SRT
  175. Language                                 : English
  176. Default                                  : Yes
  177. Forced                                   : No
  178. Text #2
  179. ID                                       : 9
  180. ID in the original source medium         : 4608 (0x1200)
  181. Format                                   : PGS
  182. Muxing mode                              : zlib
  183. Codec ID                                 : S_HDMV/PGS
  184. Codec ID/Info                            : Picture based subtitle format used on BDs/HD-DVDs
  185. Duration                                 : 1 h 37 min
  186. Bit rate                                 : 41.8 kb/s
  187. Count of elements                        : 3443
  188. Stream size                              : 29.2 MiB (0%)
  189. Title                                    : English-PGS
  190. Language                                 : English
  191. Default                                  : No
  192. Forced                                   : No
  193. Original source medium                   : Blu-ray
  194. Text #3
  195. ID                                       : 10
  196. ID in the original source medium         : 4609 (0x1201)
  197. Format                                   : PGS
  198. Muxing mode                              : zlib
  199. Codec ID                                 : S_HDMV/PGS
  200. Codec ID/Info                            : Picture based subtitle format used on BDs/HD-DVDs
  201. Duration                                 : 1 h 38 min
  202. Bit rate                                 : 33.8 kb/s
  203. Count of elements                        : 2631
  204. Stream size                              : 23.8 MiB (0%)
  205. Title                                    : Spanish-PGS
  206. Language                                 : Spanish
  207. Default                                  : No
  208. Forced                                   : No
  209. Original source medium                   : Blu-ray
  210. Menu
  211. 00:00:00.000                             : Chapter 01
  212. 00:05:16.858                             : Chapter 02
  213. 00:13:20.549                             : Chapter 03
  214. 00:20:18.634                             : Chapter 04
  215. 00:27:39.866                             : Chapter 05
  216. 00:35:54.110                             : Chapter 06
  217. 00:39:41.253                             : Chapter 07
  218. 00:45:45.409                             : Chapter 08
  219. 00:51:22.204                             : Chapter 09
  220. 00:56:34.557                             : Chapter 10
  221. 01:01:40.363                             : Chapter 11
  222. 01:07:13.446                             : Chapter 12
  223. 01:15:41.995                             : Chapter 13
  224. 01:22:30.820                             : Chapter 14
  225. 01:30:43.938                             : Chapter 15
  226. 01:36:45.800                             : Chapter 16
复制代码




                                       
                                       

                                       
                                       
                                       




回复

使用道具 举报

蓝光币
12
发表于 2022-3-31 14:23:20 | 显示全部楼层
感谢分享
回复

使用道具 举报

懒得打字嘛,点击右侧快捷回复 【右侧内容,后台自定义】
您需要登录后才可以回帖 登录 | 立即加入

本版积分规则

Archiver| |网站地图

Copyright © 2024 Comsenz Inc. Powered by 蓝光电影网

本站内容由用户自主分享和转载自互联网,转载目的在于传递更多信息,并不代表本网赞同其观点和对其真实性负责。

如有侵权、违反国家法律政策行为,请联系我们,我们会第一时间及时清除和处理!

举报反馈邮箱:4k1080.com@gmail.com

快速回复 返回顶部 返回列表