找回密码

查看: 1715|回复: 0

[喜剧] 魔精攻击 Critters.Attack.2019.1080p.BluRay.REMUX.AVC.DTS-HD.MA.5.1-FGT 16.30GB

[复制链接]
蓝光币
2039
发表于 2019-8-1 07:38:33 | 显示全部楼层 |阅读模式


◎译  名 魔精进犯 / Critters 5
◎片  名 Critters Attack!
◎年  代 2019
◎产  地 美国
◎类  别 笑剧 / 科幻 / 可骇
◎语  言 英语
◎IMDb评分  3.9/10 from 158 users
◎IMDb链接  http://www.imdb.com/title/tt10240612
◎豆瓣评分 0/10 from 0 users
◎豆瓣链接 https://movie.douban.com/subject/34434463/
◎导  演 Bobby Miller
◎编  剧 斯科特·洛布德尔 Scott Lobdell / Domonic Muir
◎主  演 Tashiana Washington
      迪·沃伦斯 Dee Wallace
      贾登·诺埃尔 Jaeden Noel
      杰克·富尔顿 Jack Fulton
      艾娃·普雷斯顿 Ava Preston
      莱昂·克林曼 Leon Clingman
      Vash Singh
      史蒂夫·布卢姆 Steve Blum
      周豪 Ho Chow
      Alex Jeaven
      Nathan Lynn
      Sven Ruygrok

◎简  介  
  Follows 20-year-old Drea, who reluctantly takes a job babysitting for a professor of a college she hopes to attend. Struggling to entertain the professor's children Trissy and Jake, along with her own little brother Phillip , Drea takes them on a hike, unaware that mysterious alien critters have crash-landed and started devouring every living thing they encounter.
  1. Video
  2. ID                                       : 1
  3. Format                                   : AVC
  4. Format/Info                              : Advanced Video Codec
  5. Format profile                           : [email protected]
  6. Format settings                          : CABAC / 4 Ref Frames
  7. Format settings, CABAC                   : Yes
  8. Format settings, Reference frames        : 4 frames
  9. Codec ID                                 : V_MPEG4/ISO/AVC
  10. Duration                                 : 1 h 29 min
  11. Bit rate mode                            : Variable
  12. Bit rate                                 : 22.9 Mb/s
  13. Maximum bit rate                         : 40.0 Mb/s
  14. Width                                    : 1 920 pixels
  15. Height                                   : 1 080 pixels
  16. Display aspect ratio                     : 16:9
  17. Frame rate mode                          : Constant
  18. Frame rate                               : 23.976 (24000/1001) FPS
  19. Color space                              : YUV
  20. Chroma subsampling                       : 4:2:0
  21. Bit depth                                : 8 bits
  22. Scan type                                : Progressive
  23. Bits/(Pixel*Frame)                       : 0.461
  24. Stream size                              : 14.3 GiB (88%)
  25. Title                                    : Critters.Attack.2019.1080p.BluRay.REMUX.AVC.DTS-HD.MA.5.1-FGT
  26. Language                                 : English
  27. Default                                  : No
  28. Forced                                   : No
  29. Audio #1
  30. ID                                       : 2
  31. Format                                   : DTS XLL
  32. Format/Info                              : Digital Theater Systems
  33. Commercial name                          : DTS-HD Master Audio
  34. Codec ID                                 : A_DTS
  35. Duration                                 : 1 h 29 min
  36. Bit rate mode                            : Variable
  37. Bit rate                                 : 2 535 kb/s
  38. Channel(s)                               : 6 channels
  39. Channel layout                           : C L R Ls Rs LFE
  40. Sampling rate                            : 48.0 kHz
  41. Frame rate                               : 93.750 FPS (512 SPF)
  42. Bit depth                                : 24 bits
  43. Compression mode                         : Lossless
  44. Stream size                              : 1.58 GiB (10%)
  45. Title                                    : Critters.Attack.2019.1080p.BluRay.REMUX.AVC.DTS-HD.MA.5.1-FGT
  46. Language                                 : English
  47. Default                                  : Yes
  48. Forced                                   : No
  49. Audio #2
  50. ID                                       : 3
  51. Format                                   : AC-3
  52. Format/Info                              : Audio Coding 3
  53. Commercial name                          : Dolby Digital
  54. Codec ID                                 : A_AC3
  55. Duration                                 : 1 h 29 min
  56. Bit rate mode                            : Constant
  57. Bit rate                                 : 640 kb/s
  58. Channel(s)                               : 6 channels
  59. Channel layout                           : L R C LFE Ls Rs
  60. Sampling rate                            : 48.0 kHz
  61. Frame rate                               : 31.250 FPS (1536 SPF)
  62. Bit depth                                : 16 bits
  63. Compression mode                         : Lossy
  64. Stream size                              : 409 MiB (2%)
  65. Title                                    : Critters.Attack.2019.1080p.BluRay.REMUX.AVC.DTS-HD.MA.5.1-FGT
  66. Language                                 : Spanish
  67. Service kind                             : Complete Main
  68. Default                                  : No
  69. Forced                                   : No
  70. Text #1
  71. ID                                       : 4
  72. Format                                   : UTF-8
  73. Codec ID                                 : S_TEXT/UTF8
  74. Codec ID/Info                            : UTF-8 Plain Text
  75. Duration                                 : 1 h 24 min
  76. Bit rate                                 : 43 b/s
  77. Count of elements                        : 942
  78. Stream size                              : 26.9 KiB (0%)
  79. Title                                    : English-SRT
  80. Language                                 : English
  81. Default                                  : Yes
  82. Forced                                   : No
  83. Text #2
  84. ID                                       : 5
  85. Format                                   : PGS
  86. Muxing mode                              : zlib
  87. Codec ID                                 : S_HDMV/PGS
  88. Codec ID/Info                            : Picture based subtitle format used on BDs/HD-DVDs
  89. Duration                                 : 1 h 24 min
  90. Bit rate                                 : 31.1 kb/s
  91. Count of elements                        : 2324
  92. Stream size                              : 18.9 MiB (0%)
  93. Title                                    : English-PGS
  94. Language                                 : English
  95. Default                                  : No
  96. Forced                                   : No
  97. Text #3
  98. ID                                       : 6
  99. Format                                   : PGS
  100. Muxing mode                              : zlib
  101. Codec ID                                 : S_HDMV/PGS
  102. Codec ID/Info                            : Picture based subtitle format used on BDs/HD-DVDs
  103. Duration                                 : 1 h 28 min
  104. Bit rate                                 : 23.5 kb/s
  105. Count of elements                        : 1840
  106. Stream size                              : 14.9 MiB (0%)
  107. Title                                    : Swedish-PGS
  108. Language                                 : Swedish
  109. Default                                  : No
  110. Forced                                   : No
  111. Text #4
  112. ID                                       : 7
  113. Format                                   : PGS
  114. Muxing mode                              : zlib
  115. Codec ID                                 : S_HDMV/PGS
  116. Codec ID/Info                            : Picture based subtitle format used on BDs/HD-DVDs
  117. Duration                                 : 1 h 28 min
  118. Bit rate                                 : 23.6 kb/s
  119. Count of elements                        : 1842
  120. Stream size                              : 14.9 MiB (0%)
  121. Title                                    : Danish-PGS
  122. Language                                 : Danish
  123. Default                                  : No
  124. Forced                                   : No
  125. Text #5
  126. ID                                       : 8
  127. Format                                   : PGS
  128. Muxing mode                              : zlib
  129. Codec ID                                 : S_HDMV/PGS
  130. Codec ID/Info                            : Picture based subtitle format used on BDs/HD-DVDs
  131. Duration                                 : 1 h 28 min
  132. Bit rate                                 : 21.7 kb/s
  133. Count of elements                        : 1834
  134. Stream size                              : 13.7 MiB (0%)
  135. Title                                    : Finnish-PGS
  136. Language                                 : Finnish
  137. Default                                  : No
  138. Forced                                   : No
  139. Text #6
  140. ID                                       : 9
  141. Format                                   : PGS
  142. Muxing mode                              : zlib
  143. Codec ID                                 : S_HDMV/PGS
  144. Codec ID/Info                            : Picture based subtitle format used on BDs/HD-DVDs
  145. Duration                                 : 1 h 28 min
  146. Bit rate                                 : 21.8 kb/s
  147. Count of elements                        : 1834
  148. Stream size                              : 13.8 MiB (0%)
  149. Title                                    : French-PGS
  150. Language                                 : French
  151. Default                                  : No
  152. Forced                                   : No
  153. Text #7
  154. ID                                       : 10
  155. Format                                   : PGS
  156. Muxing mode                              : zlib
  157. Codec ID                                 : S_HDMV/PGS
  158. Codec ID/Info                            : Picture based subtitle format used on BDs/HD-DVDs
  159. Duration                                 : 1 h 28 min
  160. Bit rate                                 : 22.7 kb/s
  161. Count of elements                        : 1840
  162. Stream size                              : 14.4 MiB (0%)
  163. Title                                    : Norwegian-PGS
  164. Language                                 : Norwegian
  165. Default                                  : No
  166. Forced                                   : No
  167. Text #8
  168. ID                                       : 11
  169. Format                                   : PGS
  170. Muxing mode                              : zlib
  171. Codec ID                                 : S_HDMV/PGS
  172. Codec ID/Info                            : Picture based subtitle format used on BDs/HD-DVDs
  173. Duration                                 : 104 ms
  174. Bit rate                                 : 5 384 b/s
  175. Count of elements                        : 2
  176. Stream size                              : 70.0 Bytes (0%)
  177. Title                                    : Spanish-PGS
  178. Language                                 : Spanish
  179. Default                                  : No
  180. Forced                                   : No
  181. Menu
  182. 00:00:00.000                             : en:Chapter 01
  183. 00:08:59.080                             : en:Chapter 02
  184. 00:17:31.967                             : en:Chapter 03
  185. 00:26:11.027                             : en:Chapter 04
  186. 00:36:25.224                             : en:Chapter 05
  187. 00:44:02.222                             : en:Chapter 06
  188. 00:51:20.243                             : en:Chapter 07
  189. 00:57:42.709                             : en:Chapter 08
  190. 01:06:17.932                             : en:Chapter 09
  191. 01:15:14.593                             : en:Chapter 10
  192. 01:25:30.875                             : en:Chapter 11
复制代码






                                       
                                       

                                       
                                       
                                       




回复

使用道具 举报

懒得打字嘛,点击右侧快捷回复 【右侧内容,后台自定义】
您需要登录后才可以回帖 登录 | 立即加入

本版积分规则

Archiver| |网站地图

Copyright © 2024 Comsenz Inc. Powered by 蓝光电影网

本站内容由用户自主分享和转载自互联网,转载目的在于传递更多信息,并不代表本网赞同其观点和对其真实性负责。

如有侵权、违反国家法律政策行为,请联系我们,我们会第一时间及时清除和处理!

举报反馈邮箱:4k1080.com@gmail.com

快速回复 返回顶部 返回列表