找回密码

查看: 1589|回复: 0

[剧情] 我的生命之光/一生荣耀 Light.of.My.Life.2019.1080p.BluRay.REMUX.AVC.DTS-HD.MA.5.1-FGT 32.81GB

[复制链接]
蓝光币
2039
发表于 2019-10-6 17:00:58 | 显示全部楼层 |阅读模式


◎译  名 我的生命之光 / 平生光荣 / 我生射中的光
◎片  名 Light of My Life
◎年  代 2019
◎产  地 美国
◎类  别 剧情
◎语  言 英语
◎上映日期 2019-02-08(柏林电影节) / 2019-08-09(美国)
◎IMDb评分  7.4/10 from 166 users
◎IMDb链接  http://www.imdb.com/title/tt6063090
◎豆瓣评分 6.8/10 from 237 users
◎豆瓣链接 https://movie.douban.com/subject/26962841/
◎片  长 119分钟
◎导  演 卡西·阿弗莱克 Casey Affleck
◎编  剧 卡西·阿弗莱克 Casey Affleck
◎主  演 卡西·阿弗莱克 Casey Affleck
       伊丽莎白·莫斯 Elisabeth Moss
       安娜·尼奥斯基 Anna Pniowsky
       汤姆·鲍尔 Tom Bower
       蒂莫西·韦伯 Timothy Webber
       蒙克·塞雷尔·弗里德 Monk Serrell Freed
       Hrothgar Mathews
       Kory Grim
       Patrick Keating
       Jesse James Pierce

◎标  签 2019 | 美国 | 卡西·阿弗莱克 | 剧情 | 柏林电影节 | CaseyAffleck | 美国电影 | Casey_Affleck
◎简  介  
  影片故事报告一位父亲倾尽一切去庇护自己的女儿。
  1. Video
  2. ID                                       : 1
  3. Format                                   : AVC
  4. Format/Info                              : Advanced Video Codec
  5. Format profile                           : [email protected]
  6. Format settings                          : CABAC / 4 Ref Frames
  7. Format settings, CABAC                   : Yes
  8. Format settings, Reference frames        : 4 frames
  9. Format settings, GOP                     : M=3, N=12
  10. Codec ID                                 : V_MPEG4/ISO/AVC
  11. Duration                                 : 1 h 59 min
  12. Bit rate mode                            : Variable
  13. Bit rate                                 : 35.9 Mb/s
  14. Maximum bit rate                         : 40.0 Mb/s
  15. Width                                    : 1 920 pixels
  16. Height                                   : 1 080 pixels
  17. Display aspect ratio                     : 16:9
  18. Frame rate mode                          : Constant
  19. Frame rate                               : 23.976 (24000/1001) FPS
  20. Color space                              : YUV
  21. Chroma subsampling                       : 4:2:0
  22. Bit depth                                : 8 bits
  23. Scan type                                : Progressive
  24. Bits/(Pixel*Frame)                       : 0.721
  25. Stream size                              : 30.0 GiB (92%)
  26. Title                                    : Light.of.My.Life.2019.1080p.BluRay.REMUX.AVC.DTS-HD.MA.5.1-FGT
  27. Language                                 : English
  28. Default                                  : No
  29. Forced                                   : No
  30. Audio
  31. ID                                       : 2
  32. Format                                   : DTS XLL
  33. Format/Info                              : Digital Theater Systems
  34. Commercial name                          : DTS-HD Master Audio
  35. Codec ID                                 : A_DTS
  36. Duration                                 : 1 h 59 min
  37. Bit rate mode                            : Variable
  38. Bit rate                                 : 3 257 kb/s
  39. Channel(s)                               : 6 channels
  40. Channel layout                           : C L R Ls Rs LFE
  41. Sampling rate                            : 48.0 kHz
  42. Frame rate                               : 93.750 FPS (512 SPF)
  43. Bit depth                                : 24 bits
  44. Compression mode                         : Lossless
  45. Stream size                              : 2.73 GiB (8%)
  46. Title                                    : Light.of.My.Life.2019.1080p.BluRay.REMUX.AVC.DTS-HD.MA.5.1-FGT
  47. Language                                 : English
  48. Default                                  : Yes
  49. Forced                                   : No
  50. Text #1
  51. ID                                       : 3
  52. Format                                   : UTF-8
  53. Codec ID                                 : S_TEXT/UTF8
  54. Codec ID/Info                            : UTF-8 Plain Text
  55. Duration                                 : 1 h 54 min
  56. Bit rate                                 : 49 b/s
  57. Count of elements                        : 1254
  58. Stream size                              : 41.2 KiB (0%)
  59. Title                                    : English-SRT
  60. Language                                 : English
  61. Default                                  : Yes
  62. Forced                                   : No
  63. Text #2
  64. ID                                       : 4
  65. Format                                   : PGS
  66. Muxing mode                              : zlib
  67. Codec ID                                 : S_HDMV/PGS
  68. Codec ID/Info                            : Picture based subtitle format used on BDs/HD-DVDs
  69. Duration                                 : 1 h 54 min
  70. Bit rate                                 : 34.5 kb/s
  71. Count of elements                        : 2300
  72. Stream size                              : 28.2 MiB (0%)
  73. Title                                    : English-PGS
  74. Language                                 : English
  75. Default                                  : No
  76. Forced                                   : No
  77. Text #3
  78. ID                                       : 5
  79. Format                                   : PGS
  80. Muxing mode                              : zlib
  81. Codec ID                                 : S_HDMV/PGS
  82. Codec ID/Info                            : Picture based subtitle format used on BDs/HD-DVDs
  83. Duration                                 : 1 h 54 min
  84. Bit rate                                 : 39.2 kb/s
  85. Count of elements                        : 2754
  86. Stream size                              : 32.1 MiB (0%)
  87. Title                                    : English-SDH-PGS
  88. Language                                 : English
  89. Default                                  : No
  90. Forced                                   : No
  91. Text #4
  92. ID                                       : 6
  93. Format                                   : PGS
  94. Muxing mode                              : zlib
  95. Codec ID                                 : S_HDMV/PGS
  96. Codec ID/Info                            : Picture based subtitle format used on BDs/HD-DVDs
  97. Duration                                 : 1 h 54 min
  98. Bit rate                                 : 31.3 kb/s
  99. Count of elements                        : 2320
  100. Stream size                              : 25.6 MiB (0%)
  101. Title                                    : Spanish-PGS
  102. Language                                 : Spanish
  103. Default                                  : No
  104. Forced                                   : No
  105. Menu
  106. 00:00:00.000                             : en:Chapter 01
  107. 00:12:13.107                             : en:Chapter 02
  108. 00:18:44.039                             : en:Chapter 03
  109. 00:26:57.115                             : en:Chapter 04
  110. 00:35:30.878                             : en:Chapter 05
  111. 00:43:29.982                             : en:Chapter 06
  112. 00:48:57.559                             : en:Chapter 07
  113. 00:58:51.861                             : en:Chapter 08
  114. 01:09:07.434                             : en:Chapter 09
  115. 01:15:28.732                             : en:Chapter 10
  116. 01:21:34.306                             : en:Chapter 11
  117. 01:26:47.702                             : en:Chapter 12
  118. 01:32:53.776                             : en:Chapter 13
  119. 01:38:16.348                             : en:Chapter 14
  120. 01:47:58.847                             : en:Chapter 15
  121. 01:55:19.120                             : en:Chapter 16
复制代码






                                       
                                       

                                       
                                       
                                       




回复

使用道具 举报

懒得打字嘛,点击右侧快捷回复 【右侧内容,后台自定义】
您需要登录后才可以回帖 登录 | 立即加入

本版积分规则

Archiver| |网站地图

Copyright © 2024 Comsenz Inc. Powered by 蓝光电影网

本站内容由用户自主分享和转载自互联网,转载目的在于传递更多信息,并不代表本网赞同其观点和对其真实性负责。

如有侵权、违反国家法律政策行为,请联系我们,我们会第一时间及时清除和处理!

举报反馈邮箱:4k1080.com@gmail.com

快速回复 返回顶部 返回列表