找回密码

查看: 1659|回复: 0

[剧情] 罪犯/英国现代残酷监狱 The.Criminal.1960.1080p.BluRay.REMUX.AVC.LPCM.2.0-FGT 26.24GB

[复制链接]
蓝光币
2039
发表于 2019-10-5 18:57:26 | 显示全部楼层 |阅读模式


◎译  名 罪犯 / 英国现代残暴牢狱
◎片  名 The Criminal
◎年  代 1960
◎产  地 英国
◎类  别 剧情 / 犯罪
◎语  言 英语
◎上映日期 1961-03-17
◎IMDb评分  6.9/10 from 1075 users
◎IMDb链接  http://www.imdb.com/title/tt0053740
◎豆瓣评分 0/10 from 0 users
◎豆瓣链接 https://movie.douban.com/subject/1301871/
◎片  长 97 分钟
◎导  演 约瑟夫·罗西 Joseph Losey
◎编  剧 阿伦·欧文 Alun Owen / 吉米·桑斯特 Jimmy Sangster
◎主  演 Stanley Baker

◎标  签 英国 | Joseph_Losey | 1960s | 约瑟夫·罗西 | 英国电影 | 犯罪 | 1961 | 约瑟夫罗西
◎简  介  
  An ex-con who's taken part in the robbery of a racetrack is caught and sent back to prison, but he won't tell his fellow gang members where he's stashed the loot. The gang kidnaps his girlfriend and has him tortured in prison in an effort to find out where the money is.
  1. Video
  2. ID                                       : 1
  3. Format                                   : AVC
  4. Format/Info                              : Advanced Video Codec
  5. Format profile                           : [email protected]
  6. Format settings                          : CABAC / 4 Ref Frames
  7. Format settings, CABAC                   : Yes
  8. Format settings, Reference frames        : 4 frames
  9. Codec ID                                 : V_MPEG4/ISO/AVC
  10. Duration                                 : 1 h 37 min
  11. Bit rate mode                            : Variable
  12. Bit rate                                 : 33.8 Mb/s
  13. Maximum bit rate                         : 38.0 Mb/s
  14. Width                                    : 1 920 pixels
  15. Height                                   : 1 080 pixels
  16. Display aspect ratio                     : 16:9
  17. Frame rate mode                          : Constant
  18. Frame rate                               : 24.000 FPS
  19. Color space                              : YUV
  20. Chroma subsampling                       : 4:2:0
  21. Bit depth                                : 8 bits
  22. Scan type                                : Progressive
  23. Bits/(Pixel*Frame)                       : 0.679
  24. Stream size                              : 23.1 GiB (88%)
  25. Title                                    : The.Criminal.1960.1080p.BluRay.REMUX.AVC.LPCM.2.0-FGT
  26. Language                                 : English
  27. Default                                  : No
  28. Forced                                   : No
  29. Audio #1
  30. ID                                       : 2
  31. Format                                   : PCM
  32. Format settings                          : Little / Signed
  33. Codec ID                                 : A_PCM/INT/LIT
  34. Duration                                 : 1 h 37 min
  35. Bit rate mode                            : Constant
  36. Bit rate                                 : 2 304 kb/s
  37. Channel(s)                               : 2 channels
  38. Sampling rate                            : 48.0 kHz
  39. Frame rate                               : 30.000 FPS (1600 SPF)
  40. Bit depth                                : 24 bits
  41. Stream size                              : 1.57 GiB (6%)
  42. Title                                    : The.Criminal.1960.1080p.BluRay.REMUX.AVC.LPCM.2.0-FGT
  43. Language                                 : English
  44. Default                                  : Yes
  45. Forced                                   : No
  46. Audio #2
  47. ID                                       : 3
  48. Format                                   : PCM
  49. Format settings                          : Little / Signed
  50. Codec ID                                 : A_PCM/INT/LIT
  51. Duration                                 : 1 h 37 min
  52. Bit rate mode                            : Constant
  53. Bit rate                                 : 2 304 kb/s
  54. Channel(s)                               : 2 channels
  55. Sampling rate                            : 48.0 kHz
  56. Frame rate                               : 30.000 FPS (1600 SPF)
  57. Bit depth                                : 24 bits
  58. Stream size                              : 1.57 GiB (6%)
  59. Title                                    : The.Criminal.1960.1080p.BluRay.REMUX.AVC.LPCM.2.0-FGT
  60. Language                                 : English
  61. Default                                  : No
  62. Forced                                   : No
  63. Text
  64. ID                                       : 4
  65. Format                                   : PGS
  66. Muxing mode                              : zlib
  67. Codec ID                                 : S_HDMV/PGS
  68. Codec ID/Info                            : Picture based subtitle format used on BDs/HD-DVDs
  69. Duration                                 : 1 h 36 min
  70. Bit rate                                 : 33.5 kb/s
  71. Count of elements                        : 2604
  72. Stream size                              : 23.2 MiB (0%)
  73. Title                                    : English-PGS
  74. Language                                 : English
  75. Default                                  : Yes
  76. Forced                                   : No
  77. Menu
  78. 00:00:00.000                             : en:Chapter 01
  79. 00:06:49.625                             : en:Chapter 02
  80. 00:13:22.333                             : en:Chapter 03
  81. 00:19:28.708                             : en:Chapter 04
  82. 00:28:55.458                             : en:Chapter 05
  83. 00:34:29.125                             : en:Chapter 06
  84. 00:41:14.291                             : en:Chapter 07
  85. 00:52:11.375                             : en:Chapter 08
  86. 01:01:58.958                             : en:Chapter 09
  87. 01:10:18.250                             : en:Chapter 10
  88. 01:18:56.041                             : en:Chapter 11
  89. 01:27:24.833                             : en:Chapter 12
复制代码






                                       
                                       

                                       
                                       
                                       




回复

使用道具 举报

懒得打字嘛,点击右侧快捷回复 【右侧内容,后台自定义】
您需要登录后才可以回帖 登录 | 立即加入

本版积分规则

Archiver| |网站地图

Copyright © 2024 Comsenz Inc. Powered by 蓝光电影网

本站内容由用户自主分享和转载自互联网,转载目的在于传递更多信息,并不代表本网赞同其观点和对其真实性负责。

如有侵权、违反国家法律政策行为,请联系我们,我们会第一时间及时清除和处理!

举报反馈邮箱:4k1080.com@gmail.com

快速回复 返回顶部 返回列表