找回密码

查看: 1584|回复: 0

[喜剧] 白衣复仇者 The.Strange.Case.of.Doctor.Rx.1942.1080p.BluRay.REMUX.AVC.DTS-HD.MA.2.0-FGT 16.84GB

[复制链接]
蓝光币
2039
发表于 2019-7-30 10:34:48 | 显示全部楼层 |阅读模式


◎译  名 白衣复仇者
◎片  名 The Strange Case of Doctor Rx
◎年  代 1942
◎产  地 美国
◎类  别 笑剧 / 悬疑 / 可骇
◎语  言 英语
◎上映日期 1942
◎IMDb评分  5.4/10 from 246 users
◎IMDb链接  http://www.imdb.com/title/tt0035386
◎豆瓣评分 0/10 from 0 users
◎豆瓣链接 https://movie.douban.com/subject/5069493/
◎片  长 66 分钟
◎导  演 William Nigh
◎编  剧 Clarence Upson Young
◎主  演 帕垂克·诺尔斯 Patric Knowles
      莱昂内尔·阿特威尔 Lionel Atwill
      安妮·格温 Anne Gwynne
      萨缪尔·S·辛兹 Samuel S. Hinds
      莫娜·巴里 Mona Barrie
      谢姆普·霍华德 Shemp Howard
      保罗·卡瓦纳 Paul Cavanagh
      埃德蒙·麦克唐纳 Edmund MacDonald
      曼坦·莫兰 Mantan Moreland
      约翰·加劳德特 John Gallaudet
      威廉·古尔德 William Gould
      莱兰·霍奇森 Leyland Hodgson

◎标  签 美国电影 | 悬疑 | 可骇 | 笑剧 | UniversalClassicMonsters
◎简  介  
  After five men previously acquitted of various criminal charges are murdered by a mysterious avenger known as Dr. Rx, police Inspector Hurd (Edmund MacDonald) and Sergeant Sweeney (Shemp Howard) ask private investigator Jerry Church (Patric Knowles) to help them on the case. He takes the case after talking to Dudley Crispin (Samuel S. Hinds), a brilliant attorney who had defended three of the murdered men. Crispin gains an acquittal for his latest client, Zarini (Matty Fain), but the latter falls dead in the courtroom. Jerry marries Kit Logan (Anne Gwynne), who becomes frightened and persuades Jerry to quit the case. He stays however after Ernie Paul (John Gallaudet), suspected of the Zarini murder, threatens to "get" him if he does not stay on and clear Paul. Dr. Rx captures Jerry and attempts to frighten him into insanity by strapping him on an operating table, and pretending to exchange the detective's brain for a gorilla. [From TCM]
  1. Video
  2. ID                                       : 1
  3. Format                                   : AVC
  4. Format/Info                              : Advanced Video Codec
  5. Format profile                           : [email protected]
  6. Format settings                          : CABAC / 4 Ref Frames
  7. Format settings, CABAC                   : Yes
  8. Format settings, Reference frames        : 4 frames
  9. Codec ID                                 : V_MPEG4/ISO/AVC
  10. Duration                                 : 1 h 5 min
  11. Bit rate mode                            : Constant
  12. Bit rate                                 : 36.0 Mb/s
  13. Width                                    : 1 920 pixels
  14. Height                                   : 1 080 pixels
  15. Display aspect ratio                     : 16:9
  16. Frame rate mode                          : Constant
  17. Frame rate                               : 23.976 (24000/1001) FPS
  18. Color space                              : YUV
  19. Chroma subsampling                       : 4:2:0
  20. Bit depth                                : 8 bits
  21. Scan type                                : Progressive
  22. Bits/(Pixel*Frame)                       : 0.724
  23. Stream size                              : 16.1 GiB (96%)
  24. Title                                    : The.Strange.Case.of.Doctor.Rx.1942.1080p.BluRay.REMUX.AVC.DTS-HD.MA.2.0-FGT
  25. Language                                 : English
  26. Default                                  : No
  27. Forced                                   : No
  28. Audio
  29. ID                                       : 2
  30. Format                                   : DTS XLL
  31. Format/Info                              : Digital Theater Systems
  32. Commercial name                          : DTS-HD Master Audio
  33. Codec ID                                 : A_DTS
  34. Duration                                 : 1 h 5 min
  35. Bit rate mode                            : Variable
  36. Bit rate                                 : 1 564 kb/s
  37. Channel(s)                               : 2 channels
  38. Channel layout                           : L R
  39. Sampling rate                            : 48.0 kHz
  40. Frame rate                               : 93.750 FPS (512 SPF)
  41. Bit depth                                : 24 bits
  42. Compression mode                         : Lossless
  43. Stream size                              : 735 MiB (4%)
  44. Title                                    : The.Strange.Case.of.Doctor.Rx.1942.1080p.BluRay.REMUX.AVC.DTS-HD.MA.2.0-FGT
  45. Language                                 : English
  46. Default                                  : Yes
  47. Forced                                   : No
  48. Text
  49. ID                                       : 3
  50. Format                                   : PGS
  51. Muxing mode                              : zlib
  52. Codec ID                                 : S_HDMV/PGS
  53. Codec ID/Info                            : Picture based subtitle format used on BDs/HD-DVDs
  54. Duration                                 : 1 h 5 min
  55. Bit rate                                 : 51.5 kb/s
  56. Count of elements                        : 1815
  57. Stream size                              : 24.0 MiB (0%)
  58. Title                                    : English-PGS
  59. Language                                 : English
  60. Default                                  : Yes
  61. Forced                                   : No
  62. Menu
  63. 00:00:00.000                             : en:Chapter 01
  64. 00:04:27.267                             : en:Chapter 02
  65. 00:08:53.241                             : en:Chapter 03
  66. 00:14:04.802                             : en:Chapter 04
  67. 00:17:52.279                             : en:Chapter 05
  68. 00:23:34.621                             : en:Chapter 06
  69. 00:29:14.586                             : en:Chapter 07
  70. 00:35:30.253                             : en:Chapter 08
  71. 00:42:18.285                             : en:Chapter 09
  72. 00:48:46.965                             : en:Chapter 10
  73. 00:52:11.711                             : en:Chapter 11
  74. 00:58:16.242                             : en:Chapter 12
复制代码






                                       
                                       

                                       
                                       
                                       




回复

使用道具 举报

懒得打字嘛,点击右侧快捷回复 【右侧内容,后台自定义】
您需要登录后才可以回帖 登录 | 立即加入

本版积分规则

Archiver| |网站地图

Copyright © 2024 Comsenz Inc. Powered by 蓝光电影网

本站内容由用户自主分享和转载自互联网,转载目的在于传递更多信息,并不代表本网赞同其观点和对其真实性负责。

如有侵权、违反国家法律政策行为,请联系我们,我们会第一时间及时清除和处理!

举报反馈邮箱:4k1080.com@gmail.com

快速回复 返回顶部 返回列表