找回密码

查看: 1156|回复: 0

[动作] 万鳄巨兽 Primeval.2007.1080p.BluRay.x264-PUZZLE 7.94GB

[复制链接]
蓝光币
2048
发表于 2019-7-20 22:23:04 | 显示全部楼层 |阅读模式


◎译  名 万鳄巨兽 / Primeval / 首恶毕露
◎片  名 Primeval
◎年  代 2007
◎产  地 美国
◎类  别 行动 / 惊悚 / 可骇 / 冒险
◎语  言 英语 / Swahili / Kirundi / 法语
◎上映日期 2007-03-22
◎IMDb评分  4.8/10 from 12260 users
◎IMDb链接  http://www.imdb.com/title/tt0772193
◎豆瓣评分 5.8/10 from 846 users
◎豆瓣链接 https://movie.douban.com/subject/1937116/
◎片  长 93 分钟
◎导  演 Michael Katleman
◎主  演 多米尼克·珀塞尔 Dominic Purcell
      Brooke Langton
      Orlando Jones

◎标  签 惊悚 | 可骇 | 美国 | 鳄鱼 | 非洲 | 探险 | 美国电影 | 灾难
◎简  介  
  为了追踪被称为“古斯塔夫”的邪恶连环杀人犯,制片人蒂姆(多米尼克·珀塞尔 Dominic Purcell 饰)带着摄影师史蒂文(奥兰多·琼斯 Orlando Jones 饰)等一干工作职员前往了位于非洲中部的布隆迪,在那边,有人传出消息,说是看到了古斯塔夫的踪影。
来到 了布隆迪,摄制组们才发现,他们所要面临的,是一个完全分歧的天下。卑劣的天气情况,落后的生活交通,不知实在脸孔神出鬼没的危险凶手,但是,这一切的一切都没能摆荡蒂姆的初心。终究,真相揭穿了,本来,传闻中的古斯塔夫居然是一条身长25尺的巨型鳄鱼,他不但力大无穷,而且具有极高的聪明。在鲜血和恐惧当中,鳄鱼对人类的猎捕起头了。
  1. Video
  2. ID                                       : 1
  3. Format                                   : AVC
  4. Format/Info                              : Advanced Video Codec
  5. Format profile                           : [email protected]
  6. Format settings                          : CABAC / 5 Ref Frames
  7. Format settings, CABAC                   : Yes
  8. Format settings, Reference frames        : 5 frames
  9. Codec ID                                 : V_MPEG4/ISO/AVC
  10. Duration                                 : 1 h 34 min
  11. Bit rate                                 : 11.4 Mb/s
  12. Width                                    : 1 920 pixels
  13. Height                                   : 816 pixels
  14. Display aspect ratio                     : 2.35:1
  15. Frame rate mode                          : Constant
  16. Frame rate                               : 23.976 FPS
  17. Color space                              : YUV
  18. Chroma subsampling                       : 4:2:0
  19. Bit depth                                : 8 bits
  20. Scan type                                : Progressive
  21. Bits/(Pixel*Frame)                       : 0.304
  22. Stream size                              : 7.36 GiB (93%)
  23. Writing library                          : x264 core 93 r1538 bd72d46
  24. Encoding settings                        : cabac=1 / ref=5 / deblock=1:0:0 / analyse=0x3:0x133 / me=umh / subme=7 / psy=1 / psy_rd=1.00:0.00 / mixed_ref=1 / me_range=16 / chroma_me=1 / trellis=1 / 8x8dct=1 / cqm=0 / deadzone=21,11 / fast_pskip=0 / chroma_qp_offset=-2 / threads=6 / sliced_threads=0 / nr=0 / decimate=0 / interlaced=0 / constrained_intra=0 / bframes=3 / b_pyramid=2 / b_adapt=1 / b_bias=0 / direct=1 / wpredb=1 / wpredp=2 / keyint=250 / keyint_min=25 / scenecut=40 / intra_refresh=0 / rc_lookahead=40 / rc=2pass / mbtree=1 / bitrate=11425 / ratetol=1.0 / qcomp=0.60 / qpmin=10 / qpmax=51 / qpstep=4 / cplxblur=20.0 / qblur=0.5 / ip_ratio=1.40 / aq=1:1.00
  25. Language                                 : English
  26. Default                                  : No
  27. Forced                                   : No
  28. Audio
  29. ID                                       : 2
  30. Format                                   : AC-3
  31. Format/Info                              : Audio Coding 3
  32. Commercial name                          : Dolby Digital
  33. Codec ID                                 : A_AC3
  34. Duration                                 : 1 h 34 min
  35. Bit rate mode                            : Constant
  36. Bit rate                                 : 640 kb/s
  37. Channel(s)                               : 6 channels
  38. Channel layout                           : L R C LFE Ls Rs
  39. Sampling rate                            : 48.0 kHz
  40. Frame rate                               : 31.250 FPS (1536 SPF)
  41. Bit depth                                : 16 bits
  42. Compression mode                         : Lossy
  43. Stream size                              : 431 MiB (5%)
  44. Service kind                             : Complete Main
  45. Default                                  : Yes
  46. Forced                                   : No
  47. Text
  48. ID                                       : 3
  49. Format                                   : UTF-8
  50. Codec ID                                 : S_TEXT/UTF8
  51. Codec ID/Info                            : UTF-8 Plain Text
  52. Default                                  : Yes
  53. Forced                                   : No
复制代码






                                       
                                       

                                       
                                       
                                       




回复

使用道具 举报

懒得打字嘛,点击右侧快捷回复 【右侧内容,后台自定义】
您需要登录后才可以回帖 登录 | 立即加入

本版积分规则

Archiver| |网站地图

Copyright © 2024 Comsenz Inc. Powered by 蓝光电影网

本站内容由用户自主分享和转载自互联网,转载目的在于传递更多信息,并不代表本网赞同其观点和对其真实性负责。

如有侵权、违反国家法律政策行为,请联系我们,我们会第一时间及时清除和处理!

举报反馈邮箱:4k1080.com@gmail.com

快速回复 返回顶部 返回列表