找回密码

查看: 1272|回复: 0

[喜剧] 面条侠/意面侠 Spaghettiman.2016.1080p.BluRay.REMUX.MPEG-2.DTS-HD.MA.5.1-FGT 12.45GB

[复制链接]
蓝光币
2039
发表于 2019-7-30 08:48:11 | 显示全部楼层 |阅读模式


◎译  名 面条侠 / 意面侠
◎片  名 Spaghettiman
◎年  代 2016
◎产  地 美国
◎类  别 笑剧 / 行动 / 犯罪
◎IMDb评分  5.2/10 from 263 users
◎IMDb链接  http://www.imdb.com/title/tt4626970
◎豆瓣评分 4.8/10 from 284 users
◎豆瓣链接 https://movie.douban.com/subject/26779160/
◎片  长 87分钟
◎导  演 Mark Potts
◎编  剧 Winston Carter / Ben Crutcher / Mark Potts / Brand Rackley
◎主  演 Ben Crutcher
      Winston Carter
      Brand Rackley

◎标  签 笑剧 | 美国 | 烂片 | 黑色诙谐 | 美国电影 | 2016 | 专业山寨电影 | 奇异
◎简  介  
  Clark doesn't care about you. He doesn't care about the world. He barely cares about himself. But after an incident with an old bowl of spaghetti and a malfunctioning microwave, he becomes a superhero that can fight crime with the power of spaghetti. However, you have to pay him.
  1. Video
  2. ID                                       : 1
  3. Format                                   : MPEG Video
  4. Format version                           : Version 2
  5. Format profile                           : [email protected]
  6. Format settings                          : CustomMatrix / BVOP
  7. Format settings, BVOP                    : Yes
  8. Format settings, Matrix                  : Custom
  9. Format settings, GOP                     : M=3, N=15
  10. Codec ID                                 : V_MPEG2
  11. Codec ID/Info                            : MPEG 1 or 2 Video
  12. Duration                                 : 1 h 25 min
  13. Bit rate mode                            : Variable
  14. Bit rate                                 : 17.9 Mb/s
  15. Maximum bit rate                         : 25.0 Mb/s
  16. Width                                    : 1 920 pixels
  17. Height                                   : 1 080 pixels
  18. Display aspect ratio                     : 16:9
  19. Frame rate mode                          : Constant
  20. Frame rate                               : 23.976 (24000/1001) FPS
  21. Color space                              : YUV
  22. Chroma subsampling                       : 4:2:0
  23. Bit depth                                : 8 bits
  24. Scan type                                : Progressive
  25. Compression mode                         : Lossy
  26. Bits/(Pixel*Frame)                       : 0.361
  27. Time code of first frame                 : 00:00:00:00
  28. Time code source                         : Group of pictures header
  29. GOP, Open/Closed                         : Closed
  30. Stream size                              : 10.7 GiB (86%)
  31. Title                                    : Spaghettiman.2016.1080p.BluRay.REMUX.MPEG-2.DTS-HD.MA.5.1-FGT
  32. Language                                 : English
  33. Default                                  : No
  34. Forced                                   : No
  35. Audio
  36. ID                                       : 2
  37. Format                                   : DTS XLL
  38. Format/Info                              : Digital Theater Systems
  39. Commercial name                          : DTS-HD Master Audio
  40. Codec ID                                 : A_DTS
  41. Duration                                 : 1 h 25 min
  42. Bit rate mode                            : Variable
  43. Bit rate                                 : 2 981 kb/s
  44. Channel(s)                               : 6 channels
  45. Channel layout                           : C L R Ls Rs LFE
  46. Sampling rate                            : 48.0 kHz
  47. Frame rate                               : 93.750 FPS (512 SPF)
  48. Bit depth                                : 24 bits
  49. Compression mode                         : Lossless
  50. Stream size                              : 1.77 GiB (14%)
  51. Title                                    : Spaghettiman.2016.1080p.BluRay.REMUX.MPEG-2.DTS-HD.MA.5.1-FGT
  52. Language                                 : English
  53. Default                                  : Yes
  54. Forced                                   : No
  55. Menu
  56. 00:00:00.000                             : de:Chapter 01
  57. 00:08:58.120                             : de:Chapter 02
  58. 00:20:30.979                             : de:Chapter 03
  59. 00:32:19.812                             : de:Chapter 04
  60. 00:43:25.894                             : de:Chapter 05
  61. 00:54:32.978                             : de:Chapter 06
  62. 01:04:28.656                             : de:Chapter 07
  63. 01:12:04.778                             : de:Chapter 08
  64. 01:23:02.811                             : de:Chapter 09
复制代码






                                       
                                       

                                       
                                       
                                       




回复

使用道具 举报

懒得打字嘛,点击右侧快捷回复 【右侧内容,后台自定义】
您需要登录后才可以回帖 登录 | 立即加入

本版积分规则

Archiver| |网站地图

Copyright © 2024 Comsenz Inc. Powered by 蓝光电影网

本站内容由用户自主分享和转载自互联网,转载目的在于传递更多信息,并不代表本网赞同其观点和对其真实性负责。

如有侵权、违反国家法律政策行为,请联系我们,我们会第一时间及时清除和处理!

举报反馈邮箱:4k1080.com@gmail.com

快速回复 返回顶部 返回列表