找回密码

查看: 4969|回复: 6

[动作] 扎克·施奈德版正义联盟 Justice.League.Snyders.Cut.2021.1080p.BluRay.REMUX.AVC.DTS-HD.MA.TrueHD.Atmos.7.1-FGT 60.35GB

[复制链接]
蓝光币
2039
发表于 2021-5-18 16:28:52 | 显示全部楼层 |阅读模式


◎译  名 扎克·施奈德版正义同盟/Justice League Snyder Cut/查克·史奈德之正义同盟(台)/正义同盟 扎克·施奈德导演剪辑版/正义同盟:扎克·施耐德版/正义同盟导演剪辑版
◎片  名 Zack Snyder's Justice League
◎年  代 2021
◎产  地 美国
◎类  别 行动 / 科幻 / 奇异 / 冒险
◎语  言 英语
◎上映日期 2021-03-18(美国) / 2021-05-03(中国大陆收集)
◎豆瓣评分 8.3/10 from 187687 users
◎豆瓣链接 https://movie.douban.com/subject/35076714/
◎片  长 242分钟
◎导  演 扎克·施奈德 Zack Snyder
◎编  剧 扎克·施奈德 Zack Snyder / 克里斯·特里奥 Chris Terrio / 威尔·比尔 Will Beall / 杰里·西格尔 Jerry Siegel / 乔·舒斯特 Joe Shuster
◎主  演 本·阿弗莱克 Ben Affleck
       亨利·卡维尔 Henry Cavill
       盖尔·加朵 Gal Gadot
       杰森·莫玛 Jason Momoa
       埃兹拉·米勒 Ezra Miller
       雷·费舍尔 Ray Fisher
       艾米·亚当斯 Amy Adams
       威廉·达福 Willem Dafoe
       杰西·艾森伯格 Jesse Eisenberg
       杰瑞米·艾恩斯 Jeremy Irons
       戴安·琳恩 Diane Lane
       康妮·尼尔森 Connie Nielsen
       J·K·西蒙斯 J.K. Simmons
       塞伦·希德 Ciarán Hinds
       郑恺 Kai Zheng
       艾梅柏·希尔德 Amber Heard
       乔·莫顿 Joe Morton
       丽莎·洛文·孔斯利 Lisa Loven Kongsli
       大卫·休里斯 David Thewlis
       安·奥戈博莫 Ann Ogbomo
       奥古斯塔·艾娃·艾伦德斯杜提尔 ágústa Eva Erlendsdóttir
       克里斯特比约格·凯尔德 Kristbj?rg Kjeld
       英格瓦·埃盖特·西古德松 Ingvar Eggert Siguresson
       马克·麦克卢尔 Marc McClure
       迈克尔·麦克埃尔哈顿 Michael McElhatton
       约翰·达格尔什 John Dagleish
       拉腊·德坎罗 Lara Decaro
       罗比·基 Robbie Gee
       吉姆·斯图格恩 Jim Sturgeon
       杜晨·科洛斯 Doutzen Kroes
       埃莉诺·松浦 Eleanor Matsuura
       萨曼塔·若 Samantha Jo
       布鲁克恩斯 Brooke Ence
       杰罗姆·普拉顿 Jér?me Pradon
       理查德·克里弗特 Richard Clifford
       文森特·里奥特 Vincent Riotta
       马克·阿诺德 Mark Arnold
       彼得·吉尼斯 Peter Guinness
       赛吉·康斯坦斯 Sergi Constance
       奥萝尔·劳泽瑞尔 Aurore Lauzeral
       朱利安·刘易斯·琼斯 Julian Lewis Jones
       雷·波特 Ray Porter
       弗朗西斯·麦基 Francis Magee
       科雷西·克莱门斯 Kiersey Clemons
       露西·布莱尔斯 Lucy Briers
       威尔·柯班 Wil Coban
       凯伦·布莱森 Karen Bryson
       克里斯蒂·梅尔 Christy Meyer
       吉安皮罗·科格诺利 Gianpiero Cognoli
       寇布勒·霍尔德布鲁克-史姑娘 Kobna Holdbrook-Smith
       凯文·马图林 Kevin Mathurin
       泰勒·詹姆斯 Taylor James
       布鲁斯·钟 Bruce Chong
       奥赖恩·李 Orion Lee
       奥利弗·加茨 Oliver Gatz
       凯莉·波尔克 Kelly Burke
       奥利弗·鲍威尔 Oliver Powell
       哈里·伦尼克斯 Harry Lennix
       欧米·罗斯 Omri Rose
       萨姆·本杰明 Sam Benjamin
       卡拉·古奇诺 Carla Gugino
       罗素·克劳 Russell Crowe
       扎克·施奈德 Zack Snyder
       杰瑞德·莱托 Jared Leto
       罗宾·怀特 Robin Wright
       比利·克鲁德普 Billy Crudup
       乔·曼根尼罗 Joe Manganiello
       斯沃里·拉格纳内 Swaylee Loughnane
       安德鲁·G·奥格尔比 Andrew G. Ogleby
       山姆·威克斯 Sam Weeks
       Salóme Gunnarsdóttir
◎标  签 DC | 正义同盟 | 扎克施奈德 | 导演剪辑版 | 科幻 | 2021 | 漫画改编 | 美国
◎简  介


  布鲁斯·韦恩(本·阿弗莱克饰)为了确保不让超人(亨利·卡维尔饰)白白牺牲,他决议与戴安娜·普林斯(盖尔·加朵饰)联手并计划招募一支超才能者团队来庇护天下免遭行将到来的灾难性威胁。但这项使命比布鲁斯设想中要困难,由于每位成员都必须面临并跨越自己曩昔的心魔,团结起来,终极构成一个史无前例的豪杰同盟。 蝙蝠侠、奇异女侠、海王(杰森·莫玛饰)、钢骨(雷·费舍饰)、闪电侠(埃兹拉·米勒饰)现在必须结合起来,否则就没法阻止荒原狼(塞伦·希德饰)、狄萨德(彼得·吉尼斯饰)以及达克赛德(雷·波特饰)扑灭地球的可怕计划。
  1. Video
  2. ID                                       : 1
  3. Format                                   : AVC
  4. Format/Info                              : Advanced Video Codec
  5. Format profile                           : [email protected]
  6. Format settings                          : CABAC / 2 Ref Frames
  7. Format settings, CABAC                   : Yes
  8. Format settings, Reference frames        : 2 frames
  9. Codec ID                                 : V_MPEG4/ISO/AVC
  10. Duration                                 : 4 h 2 min
  11. Bit rate mode                            : Variable
  12. Bit rate                                 : 22.6 Mb/s
  13. Width                                    : 1 920 pixels
  14. Height                                   : 1 080 pixels
  15. Display aspect ratio                     : 16:9
  16. Frame rate mode                          : Constant
  17. Frame rate                               : 23.976 (24000/1001/189150) FPS
  18. Color space                              : YUV
  19. Chroma subsampling                       : 4:2:0
  20. Bit depth                                : 8 bits
  21. Scan type                                : Progressive
  22. Bits/(Pixel*Frame)                       : 0.455
  23. Stream size                              : 38.3 GiB (63%)
  24. Language                                 : English
  25. Default                                  : No
  26. Forced                                   : No
  27. Audio #1
  28. ID                                       : 2
  29. Format                                   : MLP FBA 16-ch
  30. Format/Info                              : Meridian Lossless Packing FBA with 16-channel presentation
  31. Commercial name                          : Dolby TrueHD with Dolby Atmos
  32. Codec ID                                 : A_TRUEHD
  33. Duration                                 : 4 h 2 min
  34. Bit rate mode                            : Variable
  35. Bit rate                                 : 3 157 kb/s
  36. Maximum bit rate                         : 4 773 kb/s
  37. Channel(s)                               : 8 channels
  38. Channel layout                           : L R C LFE Ls Rs Lb Rb
  39. Sampling rate                            : 48.0 kHz
  40. Frame rate                               : 1 200.000 FPS (40 SPF)
  41. Bit depth                                : 24 bits
  42. Compression mode                         : Lossless
  43. Stream size                              : 5.34 GiB (9%)
  44. Title                                    : TrueHD 7.1 Atmos
  45. Language                                 : English
  46. Default                                  : Yes
  47. Forced                                   : No
  48. Number of dynamic objects                : 11
  49. Bed channel count                        : 1 channel
  50. Bed channel configuration                : LFE
  51. Audio #2
  52. ID                                       : 3
  53. Format                                   : DTS XLL
  54. Format/Info                              : Digital Theater Systems
  55. Commercial name                          : DTS-HD Master Audio
  56. Codec ID                                 : A_DTS
  57. Duration                                 : 4 h 2 min
  58. Bit rate mode                            : Variable
  59. Bit rate                                 : 3 887 kb/s
  60. Channel(s)                               : 8 channels
  61. Channel layout                           : C L R LFE Lb Rb Lss Rss
  62. Sampling rate                            : 48.0 kHz
  63. Frame rate                               : 93.750 FPS (512 SPF)
  64. Bit depth                                : 24 bits
  65. Compression mode                         : Lossless
  66. Stream size                              : 6.58 GiB (11%)
  67. Title                                    : DTS-HD MA 7.1
  68. Language                                 : English
  69. Default                                  : No
  70. Forced                                   : No
  71. Audio #3
  72. ID                                       : 4
  73. Format                                   : AC-3
  74. Format/Info                              : Audio Coding 3
  75. Commercial name                          : Dolby Digital
  76. Format settings                          : Dolby Surround EX
  77. Codec ID                                 : A_AC3
  78. Duration                                 : 4 h 2 min
  79. Bit rate mode                            : Constant
  80. Bit rate                                 : 448 kb/s
  81. Channel(s)                               : 6 channels
  82. Channel layout                           : L R C LFE Ls Rs
  83. Sampling rate                            : 48.0 kHz
  84. Frame rate                               : 31.250 FPS (1536 SPF)
  85. Compression mode                         : Lossy
  86. Stream size                              : 776 MiB (1%)
  87. Title                                    : DD 5.1
  88. Language                                 : English
  89. Service kind                             : Complete Main
  90. Default                                  : No
  91. Forced                                   : No
  92. Audio #4
  93. ID                                       : 5
  94. Format                                   : AC-3
  95. Format/Info                              : Audio Coding 3
  96. Commercial name                          : Dolby Digital
  97. Codec ID                                 : A_AC3
  98. Duration                                 : 4 h 2 min
  99. Bit rate mode                            : Constant
  100. Bit rate                                 : 448 kb/s
  101. Channel(s)                               : 6 channels
  102. Channel layout                           : L R C LFE Ls Rs
  103. Sampling rate                            : 48.0 kHz
  104. Frame rate                               : 31.250 FPS (1536 SPF)
  105. Compression mode                         : Lossy
  106. Stream size                              : 776 MiB (1%)
  107. Title                                    : DD 5.1
  108. Language                                 : English
  109. Service kind                             : Complete Main
  110. Default                                  : No
  111. Forced                                   : No
  112. Audio #5
  113. ID                                       : 6
  114. Format                                   : AC-3
  115. Format/Info                              : Audio Coding 3
  116. Commercial name                          : Dolby Digital
  117. Codec ID                                 : A_AC3
  118. Duration                                 : 4 h 2 min
  119. Bit rate mode                            : Constant
  120. Bit rate                                 : 448 kb/s
  121. Channel(s)                               : 6 channels
  122. Channel layout                           : L R C LFE Ls Rs
  123. Sampling rate                            : 48.0 kHz
  124. Frame rate                               : 31.250 FPS (1536 SPF)
  125. Compression mode                         : Lossy
  126. Stream size                              : 776 MiB (1%)
  127. Title                                    : DD 5.1
  128. Language                                 : English
  129. Service kind                             : Complete Main
  130. Default                                  : No
  131. Forced                                   : No
  132. Audio #6
  133. ID                                       : 7
  134. Format                                   : AC-3
  135. Format/Info                              : Audio Coding 3
  136. Commercial name                          : Dolby Digital
  137. Codec ID                                 : A_AC3
  138. Duration                                 : 4 h 2 min
  139. Bit rate mode                            : Constant
  140. Bit rate                                 : 448 kb/s
  141. Channel(s)                               : 6 channels
  142. Channel layout                           : L R C LFE Ls Rs
  143. Sampling rate                            : 48.0 kHz
  144. Frame rate                               : 31.250 FPS (1536 SPF)
  145. Compression mode                         : Lossy
  146. Stream size                              : 776 MiB (1%)
  147. Title                                    : DD 5.1
  148. Language                                 : French
  149. Service kind                             : Complete Main
  150. Default                                  : No
  151. Forced                                   : No
  152. Audio #7
  153. ID                                       : 8
  154. Format                                   : AC-3
  155. Format/Info                              : Audio Coding 3
  156. Commercial name                          : Dolby Digital
  157. Codec ID                                 : A_AC3
  158. Duration                                 : 4 h 2 min
  159. Bit rate mode                            : Constant
  160. Bit rate                                 : 448 kb/s
  161. Channel(s)                               : 6 channels
  162. Channel layout                           : L R C LFE Ls Rs
  163. Sampling rate                            : 48.0 kHz
  164. Frame rate                               : 31.250 FPS (1536 SPF)
  165. Compression mode                         : Lossy
  166. Stream size                              : 776 MiB (1%)
  167. Title                                    : DD 5.1
  168. Language                                 : Italian
  169. Service kind                             : Complete Main
  170. Default                                  : No
  171. Forced                                   : No
  172. Audio #8
  173. ID                                       : 9
  174. Format                                   : AC-3
  175. Format/Info                              : Audio Coding 3
  176. Commercial name                          : Dolby Digital
  177. Codec ID                                 : A_AC3
  178. Duration                                 : 4 h 2 min
  179. Bit rate mode                            : Constant
  180. Bit rate                                 : 448 kb/s
  181. Channel(s)                               : 6 channels
  182. Channel layout                           : L R C LFE Ls Rs
  183. Sampling rate                            : 48.0 kHz
  184. Frame rate                               : 31.250 FPS (1536 SPF)
  185. Compression mode                         : Lossy
  186. Stream size                              : 776 MiB (1%)
  187. Title                                    : DD 5.1
  188. Language                                 : Spanish
  189. Service kind                             : Complete Main
  190. Default                                  : No
  191. Forced                                   : No
  192. Audio #9
  193. ID                                       : 10
  194. Format                                   : AC-3
  195. Format/Info                              : Audio Coding 3
  196. Commercial name                          : Dolby Digital
  197. Codec ID                                 : A_AC3
  198. Duration                                 : 4 h 2 min
  199. Bit rate mode                            : Constant
  200. Bit rate                                 : 448 kb/s
  201. Channel(s)                               : 6 channels
  202. Channel layout                           : L R C LFE Ls Rs
  203. Sampling rate                            : 48.0 kHz
  204. Frame rate                               : 31.250 FPS (1536 SPF)
  205. Compression mode                         : Lossy
  206. Stream size                              : 776 MiB (1%)
  207. Title                                    : DD 5.1
  208. Language                                 : Spanish
  209. Service kind                             : Complete Main
  210. Default                                  : No
  211. Forced                                   : No
  212. Audio #10
  213. ID                                       : 11
  214. Format                                   : AC-3
  215. Format/Info                              : Audio Coding 3
  216. Commercial name                          : Dolby Digital
  217. Codec ID                                 : A_AC3
  218. Duration                                 : 4 h 2 min
  219. Bit rate mode                            : Constant
  220. Bit rate                                 : 448 kb/s
  221. Channel(s)                               : 6 channels
  222. Channel layout                           : L R C LFE Ls Rs
  223. Sampling rate                            : 48.0 kHz
  224. Frame rate                               : 31.250 FPS (1536 SPF)
  225. Compression mode                         : Lossy
  226. Stream size                              : 776 MiB (1%)
  227. Title                                    : DD 5.1
  228. Language                                 : Portuguese
  229. Service kind                             : Complete Main
  230. Default                                  : No
  231. Forced                                   : No
  232. Audio #11
  233. ID                                       : 12
  234. Format                                   : AC-3
  235. Format/Info                              : Audio Coding 3
  236. Commercial name                          : Dolby Digital
  237. Codec ID                                 : A_AC3
  238. Duration                                 : 4 h 2 min
  239. Bit rate mode                            : Constant
  240. Bit rate                                 : 448 kb/s
  241. Channel(s)                               : 6 channels
  242. Channel layout                           : L R C LFE Ls Rs
  243. Sampling rate                            : 48.0 kHz
  244. Frame rate                               : 31.250 FPS (1536 SPF)
  245. Compression mode                         : Lossy
  246. Stream size                              : 776 MiB (1%)
  247. Title                                    : DD 5.1
  248. Language                                 : Czech
  249. Service kind                             : Complete Main
  250. Default                                  : No
  251. Forced                                   : No
  252. Audio #12
  253. ID                                       : 13
  254. Format                                   : AC-3
  255. Format/Info                              : Audio Coding 3
  256. Commercial name                          : Dolby Digital
  257. Codec ID                                 : A_AC3
  258. Duration                                 : 4 h 2 min
  259. Bit rate mode                            : Constant
  260. Bit rate                                 : 448 kb/s
  261. Channel(s)                               : 6 channels
  262. Channel layout                           : L R C LFE Ls Rs
  263. Sampling rate                            : 48.0 kHz
  264. Frame rate                               : 31.250 FPS (1536 SPF)
  265. Compression mode                         : Lossy
  266. Stream size                              : 776 MiB (1%)
  267. Title                                    : DD 5.1
  268. Language                                 : Polish
  269. Service kind                             : Complete Main
  270. Default                                  : No
  271. Forced                                   : No
  272. Audio #13
  273. ID                                       : 14
  274. Format                                   : AC-3
  275. Format/Info                              : Audio Coding 3
  276. Commercial name                          : Dolby Digital
  277. Codec ID                                 : A_AC3
  278. Duration                                 : 4 h 2 min
  279. Bit rate mode                            : Constant
  280. Bit rate                                 : 448 kb/s
  281. Channel(s)                               : 6 channels
  282. Channel layout                           : L R C LFE Ls Rs
  283. Sampling rate                            : 48.0 kHz
  284. Frame rate                               : 31.250 FPS (1536 SPF)
  285. Compression mode                         : Lossy
  286. Stream size                              : 776 MiB (1%)
  287. Title                                    : DD 5.1
  288. Language                                 : Polish
  289. Service kind                             : Complete Main
  290. Default                                  : No
  291. Forced                                   : No
  292. Audio #14
  293. ID                                       : 15
  294. Format                                   : AC-3
  295. Format/Info                              : Audio Coding 3
  296. Commercial name                          : Dolby Digital
  297. Codec ID                                 : A_AC3
  298. Duration                                 : 4 h 2 min
  299. Bit rate mode                            : Constant
  300. Bit rate                                 : 448 kb/s
  301. Channel(s)                               : 6 channels
  302. Channel layout                           : L R C LFE Ls Rs
  303. Sampling rate                            : 48.0 kHz
  304. Frame rate                               : 31.250 FPS (1536 SPF)
  305. Compression mode                         : Lossy
  306. Stream size                              : 776 MiB (1%)
  307. Title                                    : DD 5.1
  308. Language                                 : Slovak
  309. Service kind                             : Complete Main
  310. Default                                  : No
  311. Forced                                   : No
  312. Audio #15
  313. ID                                       : 16
  314. Format                                   : AC-3
  315. Format/Info                              : Audio Coding 3
  316. Commercial name                          : Dolby Digital
  317. Codec ID                                 : A_AC3
  318. Duration                                 : 4 h 2 min
  319. Bit rate mode                            : Constant
  320. Bit rate                                 : 448 kb/s
  321. Channel(s)                               : 6 channels
  322. Channel layout                           : L R C LFE Ls Rs
  323. Sampling rate                            : 48.0 kHz
  324. Frame rate                               : 31.250 FPS (1536 SPF)
  325. Compression mode                         : Lossy
  326. Stream size                              : 776 MiB (1%)
  327. Title                                    : DD 5.1
  328. Language                                 : Japanese
  329. Service kind                             : Complete Main
  330. Default                                  : No
  331. Forced                                   : No
  332. Text #1
  333. ID                                       : 17
  334. Format                                   : UTF-8
  335. Codec ID                                 : S_TEXT/UTF8
  336. Codec ID/Info                            : UTF-8 Plain Text
  337. Duration                                 : 3 h 55 min
  338. Bit rate                                 : 31 b/s
  339. Count of elements                        : 2047
  340. Stream size                              : 54.3 KiB (0%)
  341. Title                                    : English-SRT
  342. Language                                 : English
  343. Default                                  : Yes
  344. Forced                                   : No
  345. Text #2
  346. ID                                       : 18
  347. Format                                   : PGS
  348. Muxing mode                              : zlib
  349. Codec ID                                 : S_HDMV/PGS
  350. Codec ID/Info                            : Picture based subtitle format used on BDs/HD-DVDs
  351. Duration                                 : 4 h 0 min
  352. Bit rate                                 : 25.8 kb/s
  353. Count of elements                        : 5558
  354. Stream size                              : 44.3 MiB (0%)
  355. Language                                 : English
  356. Default                                  : No
  357. Forced                                   : No
  358. Text #3
  359. ID                                       : 19
  360. Format                                   : PGS
  361. Muxing mode                              : zlib
  362. Codec ID                                 : S_HDMV/PGS
  363. Codec ID/Info                            : Picture based subtitle format used on BDs/HD-DVDs
  364. Duration                                 : 3 h 55 min
  365. Bit rate                                 : 16.3 kb/s
  366. Count of elements                        : 3540
  367. Stream size                              : 27.5 MiB (0%)
  368. Language                                 : French
  369. Default                                  : No
  370. Forced                                   : No
  371. Text #4
  372. ID                                       : 20
  373. Format                                   : PGS
  374. Muxing mode                              : zlib
  375. Codec ID                                 : S_HDMV/PGS
  376. Codec ID/Info                            : Picture based subtitle format used on BDs/HD-DVDs
  377. Duration                                 : 3 h 52 min
  378. Bit rate                                 : 24.9 kb/s
  379. Count of elements                        : 5282
  380. Stream size                              : 41.5 MiB (0%)
  381. Language                                 : Italian
  382. Default                                  : No
  383. Forced                                   : No
  384. Text #5
  385. ID                                       : 21
  386. Format                                   : PGS
  387. Muxing mode                              : zlib
  388. Codec ID                                 : S_HDMV/PGS
  389. Codec ID/Info                            : Picture based subtitle format used on BDs/HD-DVDs
  390. Duration                                 : 3 h 59 min
  391. Bit rate                                 : 18.8 kb/s
  392. Count of elements                        : 3784
  393. Stream size                              : 32.2 MiB (0%)
  394. Language                                 : Spanish
  395. Default                                  : No
  396. Forced                                   : No
  397. Text #6
  398. ID                                       : 22
  399. Format                                   : PGS
  400. Muxing mode                              : zlib
  401. Codec ID                                 : S_HDMV/PGS
  402. Codec ID/Info                            : Picture based subtitle format used on BDs/HD-DVDs
  403. Duration                                 : 3 h 51 min
  404. Bit rate                                 : 19.2 kb/s
  405. Count of elements                        : 3804
  406. Stream size                              : 31.7 MiB (0%)
  407. Language                                 : Chinese
  408. Default                                  : No
  409. Forced                                   : No
  410. Text #7
  411. ID                                       : 23
  412. Format                                   : PGS
  413. Muxing mode                              : zlib
  414. Codec ID                                 : S_HDMV/PGS
  415. Codec ID/Info                            : Picture based subtitle format used on BDs/HD-DVDs
  416. Duration                                 : 3 h 59 min
  417. Bit rate                                 : 20.1 kb/s
  418. Count of elements                        : 3822
  419. Stream size                              : 34.4 MiB (0%)
  420. Language                                 : Chinese
  421. Default                                  : No
  422. Forced                                   : No
  423. Text #8
  424. ID                                       : 24
  425. Format                                   : PGS
  426. Muxing mode                              : zlib
  427. Codec ID                                 : S_HDMV/PGS
  428. Codec ID/Info                            : Picture based subtitle format used on BDs/HD-DVDs
  429. Duration                                 : 3 h 51 min
  430. Bit rate                                 : 12.9 kb/s
  431. Count of elements                        : 3790
  432. Stream size                              : 21.2 MiB (0%)
  433. Language                                 : Korean
  434. Default                                  : No
  435. Forced                                   : No
  436. Text #9
  437. ID                                       : 25
  438. Format                                   : PGS
  439. Muxing mode                              : zlib
  440. Codec ID                                 : S_HDMV/PGS
  441. Codec ID/Info                            : Picture based subtitle format used on BDs/HD-DVDs
  442. Duration                                 : 3 h 59 min
  443. Bit rate                                 : 17.8 kb/s
  444. Count of elements                        : 2980
  445. Stream size                              : 30.4 MiB (0%)
  446. Language                                 : Spanish
  447. Default                                  : No
  448. Forced                                   : No
  449. Text #10
  450. ID                                       : 26
  451. Format                                   : PGS
  452. Muxing mode                              : zlib
  453. Codec ID                                 : S_HDMV/PGS
  454. Codec ID/Info                            : Picture based subtitle format used on BDs/HD-DVDs
  455. Duration                                 : 3 h 59 min
  456. Bit rate                                 : 19.6 kb/s
  457. Count of elements                        : 3784
  458. Stream size                              : 33.5 MiB (0%)
  459. Language                                 : Portuguese
  460. Default                                  : No
  461. Forced                                   : No
  462. Text #11
  463. ID                                       : 27
  464. Format                                   : PGS
  465. Muxing mode                              : zlib
  466. Codec ID                                 : S_HDMV/PGS
  467. Codec ID/Info                            : Picture based subtitle format used on BDs/HD-DVDs
  468. Duration                                 : 3 h 59 min
  469. Bit rate                                 : 17.7 kb/s
  470. Count of elements                        : 3762
  471. Stream size                              : 30.3 MiB (0%)
  472. Language                                 : Czech
  473. Default                                  : No
  474. Forced                                   : No
  475. Text #12
  476. ID                                       : 28
  477. Format                                   : PGS
  478. Muxing mode                              : zlib
  479. Codec ID                                 : S_HDMV/PGS
  480. Codec ID/Info                            : Picture based subtitle format used on BDs/HD-DVDs
  481. Duration                                 : 3 h 55 min
  482. Bit rate                                 : 16.8 kb/s
  483. Count of elements                        : 2552
  484. Stream size                              : 28.3 MiB (0%)
  485. Language                                 : Danish
  486. Default                                  : No
  487. Forced                                   : No
  488. Text #13
  489. ID                                       : 29
  490. Format                                   : PGS
  491. Muxing mode                              : zlib
  492. Codec ID                                 : S_HDMV/PGS
  493. Codec ID/Info                            : Picture based subtitle format used on BDs/HD-DVDs
  494. Duration                                 : 3 h 55 min
  495. Bit rate                                 : 18.3 kb/s
  496. Count of elements                        : 3760
  497. Stream size                              : 30.8 MiB (0%)
  498. Language                                 : Finnish
  499. Default                                  : No
  500. Forced                                   : No
  501. Text #14
  502. ID                                       : 30
  503. Format                                   : PGS
  504. Muxing mode                              : zlib
  505. Codec ID                                 : S_HDMV/PGS
  506. Codec ID/Info                            : Picture based subtitle format used on BDs/HD-DVDs
  507. Duration                                 : 3 h 55 min
  508. Bit rate                                 : 18.1 kb/s
  509. Count of elements                        : 3044
  510. Stream size                              : 30.4 MiB (0%)
  511. Language                                 : Norwegian
  512. Default                                  : No
  513. Forced                                   : No
  514. Text #15
  515. ID                                       : 31
  516. Format                                   : PGS
  517. Muxing mode                              : zlib
  518. Codec ID                                 : S_HDMV/PGS
  519. Codec ID/Info                            : Picture based subtitle format used on BDs/HD-DVDs
  520. Duration                                 : 3 h 59 min
  521. Bit rate                                 : 18.8 kb/s
  522. Count of elements                        : 3744
  523. Stream size                              : 32.2 MiB (0%)
  524. Language                                 : Polish
  525. Default                                  : No
  526. Forced                                   : No
  527. Text #16
  528. ID                                       : 32
  529. Format                                   : PGS
  530. Muxing mode                              : zlib
  531. Codec ID                                 : S_HDMV/PGS
  532. Codec ID/Info                            : Picture based subtitle format used on BDs/HD-DVDs
  533. Duration                                 : 3 h 55 min
  534. Bit rate                                 : 16.5 kb/s
  535. Count of elements                        : 3622
  536. Stream size                              : 27.8 MiB (0%)
  537. Language                                 : Swedish
  538. Default                                  : No
  539. Forced                                   : No
  540. Text #17
  541. ID                                       : 33
  542. Format                                   : PGS
  543. Muxing mode                              : zlib
  544. Codec ID                                 : S_HDMV/PGS
  545. Codec ID/Info                            : Picture based subtitle format used on BDs/HD-DVDs
  546. Duration                                 : 3 h 47 min
  547. Bit rate                                 : 13.2 kb/s
  548. Count of elements                        : 3433
  549. Stream size                              : 21.4 MiB (0%)
  550. Language                                 : Japanese
  551. Default                                  : No
  552. Forced                                   : No
  553. Text #18
  554. ID                                       : 34
  555. Format                                   : PGS
  556. Muxing mode                              : zlib
  557. Codec ID                                 : S_HDMV/PGS
  558. Codec ID/Info                            : Picture based subtitle format used on BDs/HD-DVDs
  559. Duration                                 : 3 h 44 min
  560. Bit rate                                 : 277 b/s
  561. Count of elements                        : 75
  562. Stream size                              : 456 KiB (0%)
  563. Title                                    : FORCED
  564. Language                                 : Japanese
  565. Default                                  : No
  566. Forced                                   : No
  567. Text #19
  568. ID                                       : 35
  569. Format                                   : PGS
  570. Muxing mode                              : zlib
  571. Codec ID                                 : S_HDMV/PGS
  572. Codec ID/Info                            : Picture based subtitle format used on BDs/HD-DVDs
  573. Duration                                 : 3 h 44 min
  574. Bit rate                                 : 261 b/s
  575. Count of elements                        : 40
  576. Stream size                              : 430 KiB (0%)
  577. Title                                    : FORCED
  578. Language                                 : French
  579. Default                                  : No
  580. Forced                                   : No
  581. Text #20
  582. ID                                       : 36
  583. Format                                   : PGS
  584. Muxing mode                              : zlib
  585. Codec ID                                 : S_HDMV/PGS
  586. Codec ID/Info                            : Picture based subtitle format used on BDs/HD-DVDs
  587. Duration                                 : 3 h 44 min
  588. Bit rate                                 : 478 b/s
  589. Count of elements                        : 70
  590. Stream size                              : 788 KiB (0%)
  591. Title                                    : FORCED
  592. Language                                 : Italian
  593. Default                                  : No
  594. Forced                                   : No
  595. Text #21
  596. ID                                       : 37
  597. Format                                   : PGS
  598. Muxing mode                              : zlib
  599. Codec ID                                 : S_HDMV/PGS
  600. Codec ID/Info                            : Picture based subtitle format used on BDs/HD-DVDs
  601. Duration                                 : 3 h 44 min
  602. Bit rate                                 : 344 b/s
  603. Count of elements                        : 54
  604. Stream size                              : 566 KiB (0%)
  605. Title                                    : FORCED
  606. Language                                 : Spanish
  607. Default                                  : No
  608. Forced                                   : No
  609. Text #22
  610. ID                                       : 38
  611. Format                                   : PGS
  612. Muxing mode                              : zlib
  613. Codec ID                                 : S_HDMV/PGS
  614. Codec ID/Info                            : Picture based subtitle format used on BDs/HD-DVDs
  615. Duration                                 : 2 h 12 min
  616. Bit rate                                 : 92 b/s
  617. Count of elements                        : 12
  618. Stream size                              : 89.9 KiB (0%)
  619. Title                                    : FORCED
  620. Language                                 : Spanish
  621. Default                                  : No
  622. Forced                                   : No
  623. Text #23
  624. ID                                       : 39
  625. Format                                   : PGS
  626. Muxing mode                              : zlib
  627. Codec ID                                 : S_HDMV/PGS
  628. Codec ID/Info                            : Picture based subtitle format used on BDs/HD-DVDs
  629. Duration                                 : 3 h 44 min
  630. Bit rate                                 : 411 b/s
  631. Count of elements                        : 64
  632. Stream size                              : 676 KiB (0%)
  633. Title                                    : FORCED
  634. Language                                 : Czech
  635. Default                                  : No
  636. Forced                                   : No
  637. Text #24
  638. ID                                       : 40
  639. Format                                   : PGS
  640. Muxing mode                              : zlib
  641. Codec ID                                 : S_HDMV/PGS
  642. Codec ID/Info                            : Picture based subtitle format used on BDs/HD-DVDs
  643. Duration                                 : 3 h 44 min
  644. Bit rate                                 : 496 b/s
  645. Count of elements                        : 78
  646. Stream size                              : 817 KiB (0%)
  647. Title                                    : FORCED
  648. Language                                 : Polish
  649. Default                                  : No
  650. Forced                                   : No
  651. Text #25
  652. ID                                       : 41
  653. Format                                   : PGS
  654. Muxing mode                              : zlib
  655. Codec ID                                 : S_HDMV/PGS
  656. Codec ID/Info                            : Picture based subtitle format used on BDs/HD-DVDs
  657. Duration                                 : 3 h 44 min
  658. Bit rate                                 : 262 b/s
  659. Count of elements                        : 46
  660. Stream size                              : 432 KiB (0%)
  661. Title                                    : FORCED
  662. Language                                 : Slovak
  663. Default                                  : No
  664. Forced                                   : No
  665. Text #26
  666. ID                                       : 42
  667. Format                                   : PGS
  668. Muxing mode                              : zlib
  669. Codec ID                                 : S_HDMV/PGS
  670. Codec ID/Info                            : Picture based subtitle format used on BDs/HD-DVDs
  671. Duration                                 : 3 h 32 min
  672. Bit rate                                 : 194 b/s
  673. Count of elements                        : 34
  674. Stream size                              : 303 KiB (0%)
  675. Title                                    : FORCED
  676. Language                                 : Portuguese
  677. Default                                  : No
  678. Forced                                   : No
  679. Menu
  680. 00:00:00.000                             : Chapter 01
  681. 00:08:54.909                             : Chapter 02
  682. 00:19:56.737                             : Chapter 03
  683. 00:36:54.503                             : Chapter 04
  684. 00:41:32.031                             : Chapter 05
  685. 00:50:18.640                             : Chapter 06
  686. 00:58:42.435                             : Chapter 07
  687. 01:08:35.569                             : Chapter 08
  688. 01:20:27.823                             : Chapter 09
  689. 01:30:05.024                             : Chapter 10
  690. 01:40:28.313                             : Chapter 11
  691. 01:51:24.010                             : Chapter 12
  692. 01:59:06.931                             : Chapter 13
  693. 02:07:56.293                             : Chapter 14
  694. 02:21:58.528                             : Chapter 01
  695. 02:29:49.915                             : Chapter 02
  696. 02:37:27.289                             : Chapter 03
  697. 02:48:36.374                             : Chapter 04
  698. 02:53:19.532                             : Chapter 05
  699. 03:09:54.109                             : Chapter 06
  700. 03:21:28.844                             : Chapter 07
  701. 03:34:12.858                             : Chapter 08
  702. 03:40:10.048                             : Chapter 09
  703. 03:50:47.476                             : Chapter 10
复制代码




                                       
                                       

                                       
                                       
                                       




回复

使用道具 举报

蓝光币
76
发表于 2021-8-24 21:51:57 | 显示全部楼层
楼主发贴辛苦了,谢谢楼主分享!我觉得蓝光电影网是注册对了!
回复

使用道具 举报

蓝光币
2
发表于 2021-9-8 12:44:09 | 显示全部楼层
太牛了@~~~~~~~~~
回复

使用道具 举报

蓝光币
205
发表于 2021-9-19 17:24:55 | 显示全部楼层

楼主太厉害了!楼主,电影应该很好看我觉得蓝光电影网真是个好地方!
回复

使用道具 举报

蓝光币
392
发表于 2022-7-20 08:13:31 | 显示全部楼层
终于找到正义联盟的导演剪辑版,240分钟4个小时真的很长
回复

使用道具 举报

蓝光币
0
发表于 2022-8-21 18:56:29 | 显示全部楼层
支持!!!!!!!!!!!!!
回复

使用道具 举报

蓝光币
92
发表于 2023-6-25 17:02:30 | 显示全部楼层

既然你诚信诚意的推荐了,那我就勉为其难的看看吧!蓝光电影网不走平凡路。
回复

使用道具 举报

懒得打字嘛,点击右侧快捷回复 【右侧内容,后台自定义】
您需要登录后才可以回帖 登录 | 立即加入

本版积分规则

Archiver| |网站地图

Copyright © 2024 Comsenz Inc. Powered by 蓝光电影网

本站内容由用户自主分享和转载自互联网,转载目的在于传递更多信息,并不代表本网赞同其观点和对其真实性负责。

如有侵权、违反国家法律政策行为,请联系我们,我们会第一时间及时清除和处理!

举报反馈邮箱:4k1080.com@gmail.com

快速回复 返回顶部 返回列表