找回密码

查看: 1515|回复: 0

[剧情] 潘神的迷宫 Pans.Labyrinth.2006.REMASTERED.SPANISH.1080p.BluRay.REMUX.AVC.DTS-HD.MA.7.1-FGT 29.15GB

[复制链接]
蓝光币
2039
发表于 2019-10-3 05:41:54 | 显示全部楼层 |阅读模式


◎译  名 潘神的迷宫 / Pan's Labyrinth / 奇异迷宫 / 潘的迷宫 / 羊男的迷宫 / 魔间迷宫
◎片  名 El laberinto del fauno
◎年  代 2006
◎产  地 西班牙 / 墨西哥 / 美国
◎类  别 剧情 / 悬疑 / 战争 / 奇异
◎语  言 西班牙语
◎上映日期 2006-10-11(西班牙)
◎IMDb评分  8.2/10 from 580358 users
◎IMDb链接  http://www.imdb.com/title/tt0457430
◎豆瓣评分 7.8/10 from 157304 users
◎豆瓣链接 https://movie.douban.com/subject/1767042/
◎片  长 118分钟(英国)
◎导  演 吉尔莫·德尔·托罗 Guillermo del Toro
◎编  剧 吉尔莫·德尔·托罗 Guillermo del Toro
◎主  演 伊万娜·巴克罗 Ivana Baquero
       塞吉·洛佩兹 Sergi López
       玛丽贝尔· 瓦度 Maribel Verdú
       道格·琼斯 Doug Jones
       艾妮安娜·姬儿 Ariadna Gil

◎标  签 魔幻 | 西班牙 | 奇异 | 童话 | 潘神的迷宫 | 战争 | 2006 | 电影
◎简  介  
  12岁女孩子奥菲丽娅(伊万娜?巴克尔洛 饰)有一个泼辣的法西斯军官继父维达(塞吉?洛佩兹 饰),维达的使命就是弹压抵挡者,研讨各类刑具来熬煎摧残被抓来的异见人士,奥菲丽娅天天都目击让人不愉快的事务。眼看着刻毒的继父和其翅膀逐日作恶还以此为乐,母亲又身怀六甲得病在床,被孤独感和目击暴行的疾苦困扰的奥菲丽娅起头沉醉在自己的空想中聊以自慰。
  一天,奥菲丽娅碰到了迷宫的保护者,潘神(道格?琼斯 饰)。潘神告诉她,她实在是奇异王国失落的公主,要想规复身份,必须经过三个危险的考验。
◎获奖情况  
  第79届奥斯卡金像奖(2007)
  最好原创剧本(提名) 吉尔莫·德尔·托罗
  最好外语片(提名) 吉尔莫·德尔·托罗
  最好摄影 吉列尔莫·纳瓦罗
  最好艺术指导 尤吉尼奥·卡巴莱罗 / Pilar Revuelta
  最好化装 David Martí / Montse Ribé
  最好原创配乐(提名) 哈维尔·纳瓦雷特
  第59届戛纳电影节(2006)
  主比赛单元 金棕榈奖(提名) 吉尔莫·德尔·托罗
  第64届金球奖(2007)
  电影类 最好外语片(提名)
  1. Video
  2. ID                                       : 1
  3. Format                                   : AVC
  4. Format/Info                              : Advanced Video Codec
  5. Format profile                           : [email protected]
  6. Format settings                          : CABAC / 4 Ref Frames
  7. Format settings, CABAC                   : Yes
  8. Format settings, Reference frames        : 4 frames
  9. Codec ID                                 : V_MPEG4/ISO/AVC
  10. Duration                                 : 1 h 59 min
  11. Bit rate mode                            : Variable
  12. Bit rate                                 : 25.5 Mb/s
  13. Maximum bit rate                         : 34.0 Mb/s
  14. Width                                    : 1 920 pixels
  15. Height                                   : 1 080 pixels
  16. Display aspect ratio                     : 16:9
  17. Frame rate mode                          : Constant
  18. Frame rate                               : 23.976 (24000/1001) FPS
  19. Color space                              : YUV
  20. Chroma subsampling                       : 4:2:0
  21. Bit depth                                : 8 bits
  22. Scan type                                : Progressive
  23. Bits/(Pixel*Frame)                       : 0.514
  24. Stream size                              : 21.3 GiB (73%)
  25. Title                                    : Pans.Labyrinth.2006.REMASTERED.SPANISH.1080p.BluRay.REMUX.AVC.DTS-HD.MA.7.1-FGT
  26. Language                                 : English
  27. Default                                  : No
  28. Forced                                   : No
  29. Audio #1
  30. ID                                       : 2
  31. Format                                   : DTS XLL
  32. Format/Info                              : Digital Theater Systems
  33. Commercial name                          : DTS-HD Master Audio
  34. Codec ID                                 : A_DTS
  35. Duration                                 : 1 h 59 min
  36. Bit rate mode                            : Variable
  37. Bit rate                                 : 5 169 kb/s
  38. Channel(s)                               : 8 channels
  39. Channel layout                           : C L R LFE Lb Rb Lss Rss
  40. Sampling rate                            : 48.0 kHz
  41. Frame rate                               : 93.750 FPS (512 SPF)
  42. Bit depth                                : 24 bits
  43. Compression mode                         : Lossless
  44. Stream size                              : 4.31 GiB (15%)
  45. Title                                    : Pans.Labyrinth.2006.REMASTERED.SPANISH.1080p.BluRay.REMUX.AVC.DTS-HD.MA.7.1-FGT
  46. Language                                 : Spanish
  47. Default                                  : Yes
  48. Forced                                   : No
  49. Audio #2
  50. ID                                       : 3
  51. Format                                   : DTS XLL
  52. Format/Info                              : Digital Theater Systems
  53. Commercial name                          : DTS-HD Master Audio
  54. Codec ID                                 : A_DTS
  55. Duration                                 : 1 h 59 min
  56. Bit rate mode                            : Variable
  57. Bit rate                                 : 4 040 kb/s
  58. Channel(s)                               : 6 channels
  59. Channel layout                           : C L R Ls Rs LFE
  60. Sampling rate                            : 48.0 kHz
  61. Frame rate                               : 93.750 FPS (512 SPF)
  62. Bit depth                                : 24 bits
  63. Compression mode                         : Lossless
  64. Stream size                              : 3.37 GiB (12%)
  65. Title                                    : Pans.Labyrinth.2006.REMASTERED.SPANISH.1080p.BluRay.REMUX.AVC.DTS-HD.MA.7.1-FGT
  66. Language                                 : Spanish
  67. Default                                  : No
  68. Forced                                   : No
  69. Audio #3
  70. ID                                       : 4
  71. Format                                   : AC-3
  72. Format/Info                              : Audio Coding 3
  73. Commercial name                          : Dolby Digital
  74. Codec ID                                 : A_AC3
  75. Duration                                 : 1 h 59 min
  76. Bit rate mode                            : Constant
  77. Bit rate                                 : 192 kb/s
  78. Channel(s)                               : 2 channels
  79. Channel layout                           : L R
  80. Sampling rate                            : 48.0 kHz
  81. Frame rate                               : 31.250 FPS (1536 SPF)
  82. Bit depth                                : 16 bits
  83. Compression mode                         : Lossy
  84. Stream size                              : 164 MiB (1%)
  85. Title                                    : Pans.Labyrinth.2006.REMASTERED.SPANISH.1080p.BluRay.REMUX.AVC.DTS-HD.MA.7.1-FGT
  86. Language                                 : English
  87. Service kind                             : Complete Main
  88. Default                                  : No
  89. Forced                                   : No
  90. Text #1
  91. ID                                       : 5
  92. Format                                   : UTF-8
  93. Codec ID                                 : S_TEXT/UTF8
  94. Codec ID/Info                            : UTF-8 Plain Text
  95. Duration                                 : 1 h 51 min
  96. Bit rate                                 : 31 b/s
  97. Count of elements                        : 869
  98. Stream size                              : 26.0 KiB (0%)
  99. Title                                    : English-SRT
  100. Language                                 : English
  101. Default                                  : Yes
  102. Forced                                   : No
  103. Text #2
  104. ID                                       : 6
  105. Format                                   : PGS
  106. Muxing mode                              : zlib
  107. Codec ID                                 : S_HDMV/PGS
  108. Codec ID/Info                            : Picture based subtitle format used on BDs/HD-DVDs
  109. Duration                                 : 1 h 51 min
  110. Bit rate                                 : 26.9 kb/s
  111. Count of elements                        : 1738
  112. Stream size                              : 21.4 MiB (0%)
  113. Title                                    : English-PGS
  114. Language                                 : English
  115. Default                                  : No
  116. Forced                                   : No
  117. Menu
  118. 00:00:00.000                             : en:Chapter 01
  119. 00:06:03.112                             : en:Chapter 02
  120. 00:09:43.332                             : en:Chapter 03
  121. 00:11:42.034                             : en:Chapter 04
  122. 00:14:44.174                             : en:Chapter 05
  123. 00:18:21.892                             : en:Chapter 06
  124. 00:25:04.085                             : en:Chapter 07
  125. 00:31:24.674                             : en:Chapter 08
  126. 00:38:45.698                             : en:Chapter 09
  127. 00:43:08.586                             : en:Chapter 10
  128. 00:46:29.161                             : en:Chapter 11
  129. 00:48:58.769                             : en:Chapter 12
  130. 00:52:22.722                             : en:Chapter 13
  131. 00:55:50.472                             : en:Chapter 14
  132. 01:02:48.222                             : en:Chapter 15
  133. 01:04:52.054                             : en:Chapter 16
  134. 01:08:09.460                             : en:Chapter 17
  135. 01:13:08.342                             : en:Chapter 18
  136. 01:16:56.737                             : en:Chapter 19
  137. 01:21:33.179                             : en:Chapter 20
  138. 01:27:10.058                             : en:Chapter 21
  139. 01:31:40.328                             : en:Chapter 22
  140. 01:36:39.001                             : en:Chapter 23
  141. 01:41:23.368                             : en:Chapter 24
  142. 01:42:02.032                             : en:Chapter 25
  143. 01:44:10.285                             : en:Chapter 26
  144. 01:52:31.494                             : en:Chapter 27
复制代码






                                       
                                       

                                       
                                       
                                       




回复

使用道具 举报

懒得打字嘛,点击右侧快捷回复 【右侧内容,后台自定义】
您需要登录后才可以回帖 登录 | 立即加入

本版积分规则

Archiver| |网站地图

Copyright © 2024 Comsenz Inc. Powered by 蓝光电影网

本站内容由用户自主分享和转载自互联网,转载目的在于传递更多信息,并不代表本网赞同其观点和对其真实性负责。

如有侵权、违反国家法律政策行为,请联系我们,我们会第一时间及时清除和处理!

举报反馈邮箱:4k1080.com@gmail.com

快速回复 返回顶部 返回列表