找回密码

查看: 1596|回复: 0

[剧情] 失控 Driven.2018.1080p.BluRay.REMUX.AVC.DTS-HD.MA.5.1-FGT 25.19GB

[复制链接]
蓝光币
2048
发表于 2019-10-1 03:50:23 | 显示全部楼层 |阅读模式


◎译  名 失控
◎片  名 Driven
◎年  代 2018
◎产  地 波多黎各 / 英国 / 美国
◎类  别 剧情 / 惊悚 / 列传
◎语  言 英语
◎上映日期 2018-09-08(威尼斯电影节) / 2019-08-16(美国)
◎IMDb评分  6.1/10 from 160 users
◎IMDb链接  http://www.imdb.com/title/tt5592796
◎豆瓣评分 0/10 from 0 users
◎豆瓣链接 https://movie.douban.com/subject/27033207/
◎片  长 108分钟
◎导  演 尼克·哈姆 Nick Hamm
◎编  剧 Colin Bateman
◎主  演 李·佩斯 Lee Pace
       杰森·苏戴奇斯 Jason Sudeikis
       朱迪·格雷尔 Judy Greer
       寇瑞·斯托尔 Corey Stoll
       艾琳·莫里亚蒂 Erin Moriarty
       贾斯汀·巴萨 Justin Bartha
       迈克尔·库立兹 Michael Cudlitz
       塔拉·萨莫斯 Tara Summers
       伊多·戈德堡 Iddo Goldberg
       冈本玉二 Yuji Okumoto
       阿瑟·迈尔斯·法里卡 Asher Miles Fallica
       艾梅柏·里维拉 Amber Rivera
       布赖恩·泰斯特 Brian Tester
       杰弗里·霍尔斯曼 Jeffrey Holsman
       奥马尔·克鲁兹·索托 Omar Cruz Soto
       Isabel Arraiza
       Tyler Crumley
       Luis O. Rosado

◎标  签 李佩斯 | 列传 | LeePace | 美国 | 惊悚 | 2018 | 电影 | TimothyOlyphant
◎简  介  
  李·佩斯出演美国传奇汽车公司德劳瑞恩的开创人——天赋汽车设想师约翰·德劳瑞恩,影片设定在1980年月,德劳瑞恩建立还没几年,正在突起,聚焦约翰和苏戴奇斯饰演的Jim Hoffman的关系。Hoffman看似风趣诱人,实在他是一位前欺骗犯,现在为FBI工作,他来约翰这里当卧底,想要控诉其贩毒。两人建立的一段风趣的bromance也很快相持不下,行差踏错。
  1. Video
  2. ID                                       : 1
  3. Format                                   : AVC
  4. Format/Info                              : Advanced Video Codec
  5. Format profile                           : [email protected]
  6. Format settings                          : CABAC / 4 Ref Frames
  7. Format settings, CABAC                   : Yes
  8. Format settings, Reference frames        : 4 frames
  9. Codec ID                                 : V_MPEG4/ISO/AVC
  10. Duration                                 : 1 h 53 min
  11. Bit rate mode                            : Variable
  12. Bit rate                                 : 29.8 Mb/s
  13. Maximum bit rate                         : 33.0 Mb/s
  14. Width                                    : 1 920 pixels
  15. Height                                   : 1 080 pixels
  16. Display aspect ratio                     : 16:9
  17. Frame rate mode                          : Constant
  18. Frame rate                               : 23.976 (24000/1001) FPS
  19. Color space                              : YUV
  20. Chroma subsampling                       : 4:2:0
  21. Bit depth                                : 8 bits
  22. Scan type                                : Progressive
  23. Bits/(Pixel*Frame)                       : 0.599
  24. Stream size                              : 23.7 GiB (94%)
  25. Title                                    : Driven.2018.1080p.BluRay.REMUX.AVC.DTS-HD.MA.5.1-FGT
  26. Language                                 : English
  27. Default                                  : No
  28. Forced                                   : No
  29. Audio
  30. ID                                       : 2
  31. Format                                   : DTS XLL
  32. Format/Info                              : Digital Theater Systems
  33. Commercial name                          : DTS-HD Master Audio
  34. Codec ID                                 : A_DTS
  35. Duration                                 : 1 h 53 min
  36. Bit rate mode                            : Variable
  37. Bit rate                                 : 1 813 kb/s
  38. Channel(s)                               : 6 channels
  39. Channel layout                           : C L R Ls Rs LFE
  40. Sampling rate                            : 48.0 kHz
  41. Frame rate                               : 93.750 FPS (512 SPF)
  42. Bit depth                                : 16 bits
  43. Compression mode                         : Lossless
  44. Stream size                              : 1.44 GiB (6%)
  45. Title                                    : Driven.2018.1080p.BluRay.REMUX.AVC.DTS-HD.MA.5.1-FGT
  46. Language                                 : English
  47. Default                                  : Yes
  48. Forced                                   : No
  49. Text #1
  50. ID                                       : 3
  51. Format                                   : UTF-8
  52. Codec ID                                 : S_TEXT/UTF8
  53. Codec ID/Info                            : UTF-8 Plain Text
  54. Duration                                 : 1 h 52 min
  55. Bit rate                                 : 75 b/s
  56. Count of elements                        : 1677
  57. Stream size                              : 62.1 KiB (0%)
  58. Title                                    : English-SRT
  59. Language                                 : English
  60. Default                                  : Yes
  61. Forced                                   : No
  62. Text #2
  63. ID                                       : 4
  64. Format                                   : PGS
  65. Muxing mode                              : zlib
  66. Codec ID                                 : S_HDMV/PGS
  67. Codec ID/Info                            : Picture based subtitle format used on BDs/HD-DVDs
  68. Duration                                 : 1 h 52 min
  69. Bit rate                                 : 70.1 kb/s
  70. Count of elements                        : 3662
  71. Stream size                              : 56.6 MiB (0%)
  72. Title                                    : English-PGS
  73. Language                                 : English
  74. Default                                  : No
  75. Forced                                   : No
  76. Text #3
  77. ID                                       : 5
  78. Format                                   : PGS
  79. Muxing mode                              : zlib
  80. Codec ID                                 : S_HDMV/PGS
  81. Codec ID/Info                            : Picture based subtitle format used on BDs/HD-DVDs
  82. Duration                                 : 1 h 52 min
  83. Bit rate                                 : 62.3 kb/s
  84. Count of elements                        : 3294
  85. Stream size                              : 50.3 MiB (0%)
  86. Title                                    : French-PGS
  87. Language                                 : French
  88. Default                                  : No
  89. Forced                                   : No
  90. Text #4
  91. ID                                       : 6
  92. Format                                   : PGS
  93. Muxing mode                              : zlib
  94. Codec ID                                 : S_HDMV/PGS
  95. Codec ID/Info                            : Picture based subtitle format used on BDs/HD-DVDs
  96. Duration                                 : 1 h 52 min
  97. Bit rate                                 : 61.8 kb/s
  98. Count of elements                        : 3310
  99. Stream size                              : 49.9 MiB (0%)
  100. Title                                    : Spanish-PGS
  101. Language                                 : Spanish
  102. Default                                  : No
  103. Forced                                   : No
  104. Text #5
  105. ID                                       : 7
  106. Format                                   : PGS
  107. Muxing mode                              : zlib
  108. Codec ID                                 : S_HDMV/PGS
  109. Codec ID/Info                            : Picture based subtitle format used on BDs/HD-DVDs
  110. Duration                                 : 104 ms
  111. Bit rate                                 : 5 384 b/s
  112. Count of elements                        : 2
  113. Stream size                              : 70.0 Bytes (0%)
  114. Title                                    : English-FORCED-PGS
  115. Language                                 : English
  116. Default                                  : No
  117. Forced                                   : No
  118. Menu
  119. 00:00:00.000                             : en:Chapter 01
  120. 00:09:19.308                             : en:Chapter 02
  121. 00:18:03.957                             : en:Chapter 03
  122. 00:30:09.557                             : en:Chapter 04
  123. 00:38:58.544                             : en:Chapter 05
  124. 00:46:08.056                             : en:Chapter 06
  125. 00:57:25.733                             : en:Chapter 07
  126. 01:08:21.972                             : en:Chapter 08
  127. 01:18:45.595                             : en:Chapter 09
  128. 01:24:16.176                             : en:Chapter 10
  129. 01:36:29.825                             : en:Chapter 11
  130. 01:43:08.599                             : en:Chapter 12
复制代码






                                       
                                       

                                       
                                       
                                       




回复

使用道具 举报

懒得打字嘛,点击右侧快捷回复 【右侧内容,后台自定义】
您需要登录后才可以回帖 登录 | 立即加入

本版积分规则

Archiver| |网站地图

Copyright © 2024 Comsenz Inc. Powered by 蓝光电影网

本站内容由用户自主分享和转载自互联网,转载目的在于传递更多信息,并不代表本网赞同其观点和对其真实性负责。

如有侵权、违反国家法律政策行为,请联系我们,我们会第一时间及时清除和处理!

举报反馈邮箱:4k1080.com@gmail.com

快速回复 返回顶部 返回列表