找回密码

查看: 1621|回复: 0

[剧情] 两分钱小羊/信心的奇迹赤子神羊 A.Kid.for.Two.Farthings.1955.1080p.BluRay.REMUX.AVC.LPCM.2.0-FGT 22.25GB

[复制链接]
蓝光币
2039
发表于 2019-9-30 19:28:38 | 显示全部楼层 |阅读模式


◎译  名 两分钱小羊 / 信心的奇迹,赤子神羊
◎片  名 A Kid for Two Farthings
◎年  代 1955
◎产  地 英国
◎类  别 剧情 / 笑剧 / 家庭 / 奇异 / 活动
◎语  言 英语
◎上映日期 1955-05-05
◎IMDb评分  6.5/10 from 741 users
◎IMDb链接  http://www.imdb.com/title/tt0048250
◎豆瓣评分 0/10 from 0 users
◎豆瓣链接 https://movie.douban.com/subject/1299355/
◎片  长 96 分钟
◎导  演 卡罗尔·里德 Carol Reed
◎编  剧 沃尔夫·曼考维兹 Wolf Mankowitz
◎主  演 西莉亚·约翰逊 Celia Johnson
       黛安娜·多丝 Diana Dors
       大卫·柯索夫 David Kossoff
       乔·鲁宾逊 Joe Robinson
       乔纳森·阿什莫尔 Jonathan Ashmore

◎标  签 英国 | 英国电影 | 卡罗尔里德 | 英國 | 奇异 | 笑剧 | 剧情 | Carol_Reed
◎简  介  
  In a lower-class London community of small shops, open-air vendors and flea-marketers, Joe, a small boy, lives with his mother, Joanne, who works in and rooms above the Kandinsky tailor shop. Joe is innocently and earnestly determined to help realize the wishes of his poor, hard-working neighbours. Hearing from Mr. Kandinsky the tale that a captured unicorn will grant any wish, Joe uses his accumulated pocket change to buy a kid with an emerging horn, believing it to be a unicorn. His subsequent efforts to make dreams come true exemplify the power of hope and will amidst hardship. The film captures the cockney humor and sharp wit of the inner London community practically living on top of each other. People lived close to the small shops and businesses. Everyone knew everyone else and saw them all day. Their lives were lived openly, with the neighbors sharing in each others joys, sorrows, gossip, romances, and whatever. The most shining performance is that of the wonderful character actor, David Kossof, as the elderly tailor who strives to keep the child's dream alive.
◎获奖情况  
  第8届戛纳电影节(1955)
  主比赛单元 金棕榈奖(提名) 卡罗尔·里德
  1. Video
  2. ID                                       : 1
  3. Format                                   : AVC
  4. Format/Info                              : Advanced Video Codec
  5. Format profile                           : [email protected]
  6. Format settings                          : CABAC / 3 Ref Frames
  7. Format settings, CABAC                   : Yes
  8. Format settings, Reference frames        : 3 frames
  9. Codec ID                                 : V_MPEG4/ISO/AVC
  10. Duration                                 : 1 h 32 min
  11. Bit rate mode                            : Variable
  12. Bit rate                                 : 30.0 Mb/s
  13. Maximum bit rate                         : 36.0 Mb/s
  14. Width                                    : 1 920 pixels
  15. Height                                   : 1 080 pixels
  16. Display aspect ratio                     : 16:9
  17. Frame rate mode                          : Constant
  18. Frame rate                               : 24.000 FPS
  19. Color space                              : YUV
  20. Chroma subsampling                       : 4:2:0
  21. Bit depth                                : 8 bits
  22. Scan type                                : Progressive
  23. Bits/(Pixel*Frame)                       : 0.603
  24. Stream size                              : 19.3 GiB (87%)
  25. Title                                    : A.Kid.for.Two.Farthings.1955.1080p.BluRay.REMUX.AVC.LPCM.2.0-FGT
  26. Writing library                          : x264 core 157 r2935 545de2f
  27. Encoding settings                        : cabac=1 / ref=4 / deblock=1:0:0 / analyse=0x3:0x133 / me=umh / subme=10 / psy=1 / psy_rd=1.00:0.00 / mixed_ref=1 / me_range=24 / chroma_me=1 / trellis=2 / 8x8dct=1 / cqm=0 / deadzone=21,11 / fast_pskip=1 / chroma_qp_offset=-2 / threads=12 / lookahead_threads=1 / sliced_threads=0 / slices=4 / nr=0 / decimate=1 / interlaced=0 / bluray_compat=1 / constrained_intra=0 / bframes=3 / b_pyramid=1 / b_adapt=2 / b_bias=0 / direct=3 / weightb=1 / open_gop=1 / weightp=1 / keyint=24 / keyint_min=1 / scenecut=40 / intra_refresh=0 / rc_lookahead=24 / rc=2pass / mbtree=1 / bitrate=30000 / ratetol=0.1 / qcomp=0.90 / qpmin=1 / qpmax=69 / qpstep=4 / cplxblur=20.0 / qblur=0.5 / vbv_maxrate=36000 / vbv_bufsize=30000 / nal_hrd=vbr / filler=0 / ip_ratio=1.40 / aq=1:1.00
  28. Language                                 : English
  29. Default                                  : No
  30. Forced                                   : No
  31. Color range                              : Limited
  32. Color primaries                          : BT.709
  33. Transfer characteristics                 : BT.709
  34. Matrix coefficients                      : BT.709
  35. Audio #1
  36. ID                                       : 2
  37. Format                                   : PCM
  38. Format settings                          : Little / Signed
  39. Codec ID                                 : A_PCM/INT/LIT
  40. Duration                                 : 1 h 32 min
  41. Bit rate mode                            : Constant
  42. Bit rate                                 : 2 304 kb/s
  43. Channel(s)                               : 2 channels
  44. Sampling rate                            : 48.0 kHz
  45. Frame rate                               : 30.000 FPS (1600 SPF)
  46. Bit depth                                : 24 bits
  47. Stream size                              : 1.49 GiB (7%)
  48. Title                                    : A.Kid.for.Two.Farthings.1955.1080p.BluRay.REMUX.AVC.LPCM.2.0-FGT
  49. Language                                 : English
  50. Default                                  : Yes
  51. Forced                                   : No
  52. Audio #2
  53. ID                                       : 3
  54. Format                                   : PCM
  55. Format settings                          : Little / Signed
  56. Codec ID                                 : A_PCM/INT/LIT
  57. Duration                                 : 1 h 32 min
  58. Bit rate mode                            : Constant
  59. Bit rate                                 : 2 304 kb/s
  60. Channel(s)                               : 2 channels
  61. Sampling rate                            : 48.0 kHz
  62. Frame rate                               : 30.000 FPS (1600 SPF)
  63. Bit depth                                : 24 bits
  64. Stream size                              : 1.49 GiB (7%)
  65. Title                                    : A.Kid.for.Two.Farthings.1955.1080p.BluRay.REMUX.AVC.LPCM.2.0-FGT
  66. Language                                 : English
  67. Default                                  : No
  68. Forced                                   : No
  69. Text
  70. ID                                       : 4
  71. Format                                   : PGS
  72. Muxing mode                              : zlib
  73. Codec ID                                 : S_HDMV/PGS
  74. Codec ID/Info                            : Picture based subtitle format used on BDs/HD-DVDs
  75. Duration                                 : 1 h 29 min
  76. Bit rate                                 : 46.3 kb/s
  77. Count of elements                        : 3004
  78. Stream size                              : 29.7 MiB (0%)
  79. Title                                    : English-PGS
  80. Language                                 : English
  81. Default                                  : Yes
  82. Forced                                   : No
  83. Menu
  84. 00:00:00.000                             : en:Chapter 00
  85. 00:01:53.500                             : en:Chapter 01
  86. 00:10:24.416                             : en:Chapter 02
  87. 00:16:54.750                             : en:Chapter 03
  88. 00:25:18.416                             : en:Chapter 04
  89. 00:33:21.500                             : en:Chapter 05
  90. 00:40:02.875                             : en:Chapter 06
  91. 00:45:57.708                             : en:Chapter 07
  92. 00:52:23.458                             : en:Chapter 08
  93. 01:02:07.500                             : en:Chapter 09
  94. 01:08:02.666                             : en:Chapter 10
  95. 01:15:21.875                             : en:Chapter 11
  96. 01:19:34.333                             : en:Chapter 12
复制代码






                                       
                                       

                                       
                                       
                                       




回复

使用道具 举报

懒得打字嘛,点击右侧快捷回复 【右侧内容,后台自定义】
您需要登录后才可以回帖 登录 | 立即加入

本版积分规则

Archiver| |网站地图

Copyright © 2024 Comsenz Inc. Powered by 蓝光电影网

本站内容由用户自主分享和转载自互联网,转载目的在于传递更多信息,并不代表本网赞同其观点和对其真实性负责。

如有侵权、违反国家法律政策行为,请联系我们,我们会第一时间及时清除和处理!

举报反馈邮箱:4k1080.com@gmail.com

快速回复 返回顶部 返回列表