找回密码

查看: 2426|回复: 0

[动作] 大师/行家 The.Virtuoso.2021.1080p.BluRay.REMUX.AVC.DTS-HD.MA.5.1-FGT 29.55GB

[复制链接]
蓝光币
2048
发表于 2021-5-13 15:10:00 | 显示全部楼层 |阅读模式


◎译  名 大师/里手
◎片  名 The Virtuoso
◎年  代 2021
◎产  地 美国
◎类  别 行动 / 惊悚 / 犯罪
◎语  言 英语
◎上映日期 2021-04-30(美国/美国收集)
◎IMDb评分  4.9/10 from 2087 users
◎IMDb链接  https://www.imdb.com/title/tt4136456/
◎豆瓣评分 6.1/10 from 3250 users
◎豆瓣链接 https://movie.douban.com/subject/33441582/
◎导  演 尼克·斯塔利亚诺 Nick Stagliano
◎主  演 安东尼·霍普金斯 Anthony Hopkins
       艾比·考尼什 Abbie Cornish
       安松·蒙特 Anson Mount
       迪奥拉·拜尔德 Diora Baird
       埃迪·马森 Eddie Marsan
       大卫·摩斯 David Morse
       理查德·布雷克 Richard Brake
       克里斯·佩尔费蒂 Chris Perfetti
       布莱斯·科里根 Blaise Corrigan
◎标  签 犯罪 | 悬疑 | 安东尼·霍普金斯 | 美国 | 行动 | 2021 | 惊悚 | 美国电影
◎简  介


  安东尼·霍普金斯、安森·蒙特(《异人族》《星际迷航:发现号》)、艾比·考尼什(《三块广告牌》《明亮的星》)将主演黑色惊悚片《大师》(The Virtuoso,暂译),Nick Stagliano(《美好的一天》)执导。蒙特饰一个职业杀手,欠下他的导师(霍普金斯)很多,为此他得杀掉最新接管的一个使命方针。但没有任何这个方针的照片和具体描写,他只晓得方针会鄙人午5点,出现在一个暮气沉沉的小镇的餐厅里。那末餐厅里任何顾客都能够是这个杀手要杀的人,还有阿谁奥秘的女招待(考尼什),就算她不是方针,也是一个充足威胁这项使命的存在,她甚至能够风险杀手的生命。
  
  该片也行将在#戛纳电影节#卖片。
  1. Video
  2. ID                                       : 1
  3. ID in the original source medium         : 4113 (0x1011)
  4. Format                                   : AVC
  5. Format/Info                              : Advanced Video Codec
  6. Format profile                           : [email protected]
  7. Format settings                          : CABAC / 4 Ref Frames
  8. Format settings, CABAC                   : Yes
  9. Format settings, Reference frames        : 4 frames
  10. Codec ID                                 : V_MPEG4/ISO/AVC
  11. Duration                                 : 1 h 49 min
  12. Bit rate mode                            : Variable
  13. Bit rate                                 : 35.1 Mb/s
  14. Maximum bit rate                         : 37.0 Mb/s
  15. Width                                    : 1 920 pixels
  16. Height                                   : 1 080 pixels
  17. Display aspect ratio                     : 16:9
  18. Frame rate mode                          : Constant
  19. Frame rate                               : 23.976 (24000/1001/189150) FPS
  20. Color space                              : YUV
  21. Chroma subsampling                       : 4:2:0
  22. Bit depth                                : 8 bits
  23. Scan type                                : Progressive
  24. Bits/(Pixel*Frame)                       : 0.705
  25. Stream size                              : 26.9 GiB (91%)
  26. Language                                 : English
  27. Default                                  : No
  28. Forced                                   : No
  29. Original source medium                   : Blu-ray
  30. Audio #1
  31. ID                                       : 2
  32. ID in the original source medium         : 4352 (0x1100)
  33. Format                                   : DTS XLL
  34. Format/Info                              : Digital Theater Systems
  35. Commercial name                          : DTS-HD Master Audio
  36. Codec ID                                 : A_DTS
  37. Duration                                 : 1 h 49 min
  38. Bit rate mode                            : Variable
  39. Bit rate                                 : 3 286 kb/s
  40. Channel(s)                               : 6 channels
  41. Channel layout                           : C L R Ls Rs LFE
  42. Sampling rate                            : 48.0 kHz
  43. Frame rate                               : 93.750 FPS (512 SPF)
  44. Bit depth                                : 24 bits
  45. Compression mode                         : Lossless
  46. Stream size                              : 2.52 GiB (9%)
  47. Title                                    : DTS-HD MA 5.1
  48. Language                                 : English
  49. Default                                  : Yes
  50. Forced                                   : No
  51. Original source medium                   : Blu-ray
  52. Audio #2
  53. ID                                       : 3
  54. ID in the original source medium         : 4353 (0x1101)
  55. Format                                   : AC-3
  56. Format/Info                              : Audio Coding 3
  57. Commercial name                          : Dolby Digital
  58. Codec ID                                 : A_AC3
  59. Duration                                 : 1 h 49 min
  60. Bit rate mode                            : Constant
  61. Bit rate                                 : 192 kb/s
  62. Channel(s)                               : 2 channels
  63. Channel layout                           : L R
  64. Sampling rate                            : 48.0 kHz
  65. Frame rate                               : 31.250 FPS (1536 SPF)
  66. Compression mode                         : Lossy
  67. Stream size                              : 151 MiB (0%)
  68. Title                                    : DD 2.0
  69. Language                                 : English
  70. Service kind                             : Complete Main
  71. Default                                  : No
  72. Forced                                   : No
  73. Original source medium                   : Blu-ray
  74. Text #1
  75. ID                                       : 4
  76. Format                                   : UTF-8
  77. Codec ID                                 : S_TEXT/UTF8
  78. Codec ID/Info                            : UTF-8 Plain Text
  79. Duration                                 : 1 h 42 min
  80. Bit rate                                 : 35 b/s
  81. Count of elements                        : 876
  82. Stream size                              : 26.4 KiB (0%)
  83. Title                                    : English-SRT
  84. Language                                 : English
  85. Default                                  : Yes
  86. Forced                                   : No
  87. Text #2
  88. ID                                       : 5
  89. ID in the original source medium         : 4608 (0x1200)
  90. Format                                   : PGS
  91. Muxing mode                              : zlib
  92. Codec ID                                 : S_HDMV/PGS
  93. Codec ID/Info                            : Picture based subtitle format used on BDs/HD-DVDs
  94. Duration                                 : 1 h 42 min
  95. Bit rate                                 : 22.3 kb/s
  96. Count of elements                        : 1764
  97. Stream size                              : 16.3 MiB (0%)
  98. Title                                    : English-PGS
  99. Language                                 : English
  100. Default                                  : No
  101. Forced                                   : No
  102. Original source medium                   : Blu-ray
  103. Text #3
  104. ID                                       : 6
  105. ID in the original source medium         : 4609 (0x1201)
  106. Format                                   : PGS
  107. Muxing mode                              : zlib
  108. Codec ID                                 : S_HDMV/PGS
  109. Codec ID/Info                            : Picture based subtitle format used on BDs/HD-DVDs
  110. Duration                                 : 1 h 43 min
  111. Bit rate                                 : 24.3 kb/s
  112. Count of elements                        : 2088
  113. Stream size                              : 18.1 MiB (0%)
  114. Title                                    : English-PGS
  115. Language                                 : English
  116. Default                                  : No
  117. Forced                                   : No
  118. Original source medium                   : Blu-ray
  119. Text #4
  120. ID                                       : 7
  121. ID in the original source medium         : 4610 (0x1202)
  122. Format                                   : PGS
  123. Muxing mode                              : zlib
  124. Codec ID                                 : S_HDMV/PGS
  125. Codec ID/Info                            : Picture based subtitle format used on BDs/HD-DVDs
  126. Duration                                 : 1 h 47 min
  127. Bit rate                                 : 21.2 kb/s
  128. Count of elements                        : 1788
  129. Stream size                              : 16.4 MiB (0%)
  130. Title                                    : Spanish-PGS
  131. Language                                 : Spanish
  132. Default                                  : No
  133. Forced                                   : No
  134. Original source medium                   : Blu-ray
  135. Menu
  136. 00:00:00.000                             : Chapter 01
  137. 00:04:04.285                             : Chapter 02
  138. 00:09:55.219                             : Chapter 03
  139. 00:14:37.167                             : Chapter 04
  140. 00:23:39.584                             : Chapter 05
  141. 00:29:31.394                             : Chapter 06
  142. 00:37:21.030                             : Chapter 07
  143. 00:43:00.869                             : Chapter 08
  144. 00:51:23.955                             : Chapter 09
  145. 00:57:42.792                             : Chapter 10
  146. 01:04:54.640                             : Chapter 11
  147. 01:14:02.855                             : Chapter 12
  148. 01:19:25.886                             : Chapter 13
  149. 01:23:48.940                             : Chapter 14
  150. 01:29:17.018                             : Chapter 15
  151. 01:42:37.025                             : Chapter 16
复制代码







                                       
                                       

                                       
                                       
                                       




回复

使用道具 举报

懒得打字嘛,点击右侧快捷回复 【右侧内容,后台自定义】
您需要登录后才可以回帖 登录 | 立即加入

本版积分规则

Archiver| |网站地图

Copyright © 2024 Comsenz Inc. Powered by 蓝光电影网

本站内容由用户自主分享和转载自互联网,转载目的在于传递更多信息,并不代表本网赞同其观点和对其真实性负责。

如有侵权、违反国家法律政策行为,请联系我们,我们会第一时间及时清除和处理!

举报反馈邮箱:4k1080.com@gmail.com

快速回复 返回顶部 返回列表