找回密码

查看: 1572|回复: 0

[喜剧] 为所应为/不作亏心事 Do.the.Right.Thing.1989.REMASTERED.1080p.BluRay.REMUX.AVC.DTS-HD.MA.5.1-FGT 32.08GB

[复制链接]
蓝光币
2048
发表于 2019-7-29 01:03:25 | 显示全部楼层 |阅读模式


◎译  名 为所应为 / 不作亏苦衷 / 不做错事 / 循规蹈矩
◎片  名 Do the Right Thing
◎年  代 1989
◎产  地 美国
◎类  别 笑剧
◎语  言 英语 / 意大利语 / 西班牙语
◎上映日期 1989-05-19(戛纳电影节) / 1989-06-14(法国)
◎IMDb评分  7.9/10 from 75624 users
◎IMDb链接  http://www.imdb.com/title/tt0097216
◎豆瓣评分 8.2/10 from 3921 users
◎豆瓣链接 https://movie.douban.com/subject/1293958/
◎片  长 120 分钟
◎导  演 斯派克·李 Spike Lee
◎编  剧 斯派克·李 Spike Lee
◎主  演 奥西·戴维斯 Ossie Davis
      丹尼·爱罗 Danny Aiello
      吉安卡罗·埃斯波西托 Giancarlo Esposito
      Richard Edson
      斯派克·李 Spike Lee
      露比·迪 Ruby Dee
      塞缪尔·杰克逊 Samuel L. Jackson

◎标  签 美国 | 斯派克·李 | 种族 | 1989 | 美国电影 | SpikeLee | 剧情 | Spike_Lee
◎简  介  
  纽约布鲁克林黑人社区生在世各个族群的人:黑人、意大利移民、韩国人.....意大利移民Sal(丹尼·爱罗 Danny Aiello 饰)和他的两个儿子在这里经营一家比萨店很久了,Mookie(斯派克·李 Spike Lee 饰)在店里负责送外卖,经常和Sal的儿子闹冲突。Radio Raheem(Bill Nunn 饰)是一个喜好提着一个收音机高声放着音乐处处走的年轻人。酷热的一天,黑人小伙Buggin' Out(吉安卡罗·埃斯波西托 Giancarlo Esposito 饰)发现比萨店墙上挂着的名流照片里没有一个黑人,非常不满;而Radio来到比萨店,却被Sal要求关掉收音机。心胸不满的Buggin' Out和Raido决议找Sal讨个说法,三人在争论中,Sal把Radio的收音机砸烂了。Raido盛怒,便和Sal打了起来。差人赶来了,围观的人也越来越多,一场种族间的暴乱行将到来......
本片被提名62届奥斯卡最好男配角、最好改编剧本,本片的成功使黑人导演斯派克李在好莱坞大放异彩。
◎获奖情况  
  第62届奥斯卡金像奖(1990)
  最好男配角(提名) 丹尼·爱罗
  最好原创剧本(提名) 斯派克·李
  第42届戛纳电影节(1989)
  主比赛单元 金棕榈奖(提名) 斯派克·李

  1. Video
  2. ID                                       : 1
  3. Format                                   : AVC
  4. Format/Info                              : Advanced Video Codec
  5. Format profile                           : [email protected]
  6. Format settings                          : CABAC / 4 Ref Frames
  7. Format settings, CABAC                   : Yes
  8. Format settings, Reference frames        : 4 frames
  9. Codec ID                                 : V_MPEG4/ISO/AVC
  10. Duration                                 : 2 h 0 min
  11. Bit rate mode                            : Variable
  12. Bit rate                                 : 34.4 Mb/s
  13. Maximum bit rate                         : 37.0 Mb/s
  14. Width                                    : 1 920 pixels
  15. Height                                   : 1 080 pixels
  16. Display aspect ratio                     : 16:9
  17. Frame rate mode                          : Constant
  18. Frame rate                               : 23.976 (24000/1001) FPS
  19. Color space                              : YUV
  20. Chroma subsampling                       : 4:2:0
  21. Bit depth                                : 8 bits
  22. Scan type                                : Progressive
  23. Bits/(Pixel*Frame)                       : 0.691
  24. Stream size                              : 28.8 GiB (90%)
  25. Title                                    : Do.the.Right.Thing.1989.REMASTERED.1080p.BluRay.REMUX.AVC.DTS-HD.MA.2.0-FGT
  26. Language                                 : English
  27. Default                                  : No
  28. Forced                                   : No
  29. Audio #1
  30. ID                                       : 2
  31. Format                                   : DTS XLL
  32. Format/Info                              : Digital Theater Systems
  33. Commercial name                          : DTS-HD Master Audio
  34. Codec ID                                 : A_DTS
  35. Duration                                 : 2 h 0 min
  36. Bit rate mode                            : Variable
  37. Bit rate                                 : 3 635 kb/s
  38. Channel(s)                               : 6 channels
  39. Channel layout                           : C L R Ls Rs LFE
  40. Sampling rate                            : 48.0 kHz
  41. Frame rate                               : 93.750 FPS (512 SPF)
  42. Bit depth                                : 24 bits
  43. Compression mode                         : Lossless
  44. Stream size                              : 3.05 GiB (10%)
  45. Title                                    : Do.the.Right.Thing.1989.REMASTERED.1080p.BluRay.REMUX.AVC.DTS-HD.MA.2.0-FGT
  46. Language                                 : English
  47. Default                                  : Yes
  48. Forced                                   : No
  49. Audio #2
  50. ID                                       : 3
  51. Format                                   : AC-3
  52. Format/Info                              : Audio Coding 3
  53. Commercial name                          : Dolby Digital
  54. Codec ID                                 : A_AC3
  55. Duration                                 : 2 h 0 min
  56. Bit rate mode                            : Constant
  57. Bit rate                                 : 192 kb/s
  58. Channel(s)                               : 1 channel
  59. Channel layout                           : C
  60. Sampling rate                            : 48.0 kHz
  61. Frame rate                               : 31.250 FPS (1536 SPF)
  62. Bit depth                                : 16 bits
  63. Compression mode                         : Lossy
  64. Stream size                              : 165 MiB (1%)
  65. Title                                    : Do.the.Right.Thing.1989.REMASTERED.1080p.BluRay.REMUX.AVC.DTS-HD.MA.2.0-FGT
  66. Language                                 : English
  67. Service kind                             : Complete Main
  68. Default                                  : No
  69. Forced                                   : No
  70. Text
  71. ID                                       : 4
  72. Format                                   : PGS
  73. Muxing mode                              : zlib
  74. Codec ID                                 : S_HDMV/PGS
  75. Codec ID/Info                            : Picture based subtitle format used on BDs/HD-DVDs
  76. Duration                                 : 1 h 57 min
  77. Bit rate                                 : 86.3 kb/s
  78. Count of elements                        : 4834
  79. Stream size                              : 72.7 MiB (0%)
  80. Title                                    : English-PGS
  81. Language                                 : English
  82. Default                                  : Yes
  83. Forced                                   : No
  84. Menu
  85. 00:00:00.000                             : en:Chapter 01
  86. 00:04:42.949                             : en:Chapter 02
  87. 00:10:51.734                             : en:Chapter 03
  88. 00:13:42.279                             : en:Chapter 04
  89. 00:18:45.624                             : en:Chapter 05
  90. 00:25:12.677                             : en:Chapter 06
  91. 00:30:37.001                             : en:Chapter 07
  92. 00:36:49.207                             : en:Chapter 08
  93. 00:41:52.259                             : en:Chapter 09
  94. 00:44:35.339                             : en:Chapter 10
  95. 00:49:21.041                             : en:Chapter 11
  96. 00:53:31.583                             : en:Chapter 12
  97. 00:57:57.432                             : en:Chapter 13
  98. 01:02:24.490                             : en:Chapter 14
  99. 01:06:53.217                             : en:Chapter 15
  100. 01:11:47.720                             : en:Chapter 16
  101. 01:14:37.973                             : en:Chapter 17
  102. 01:16:59.406                             : en:Chapter 18
  103. 01:23:53.903                             : en:Chapter 19
  104. 01:28:28.052                             : en:Chapter 20
  105. 01:33:12.712                             : en:Chapter 21
  106. 01:36:44.548                             : en:Chapter 22
  107. 01:41:07.436                             : en:Chapter 23
  108. 01:44:59.293                             : en:Chapter 24
  109. 01:48:19.910                             : en:Chapter 25
  110. 01:52:19.733                             : en:Chapter 26
复制代码






                                       
                                       

                                       
                                       
                                       




回复

使用道具 举报

懒得打字嘛,点击右侧快捷回复 【右侧内容,后台自定义】
您需要登录后才可以回帖 登录 | 立即加入

本版积分规则

Archiver| |网站地图

Copyright © 2024 Comsenz Inc. Powered by 蓝光电影网

本站内容由用户自主分享和转载自互联网,转载目的在于传递更多信息,并不代表本网赞同其观点和对其真实性负责。

如有侵权、违反国家法律政策行为,请联系我们,我们会第一时间及时清除和处理!

举报反馈邮箱:4k1080.com@gmail.com

快速回复 返回顶部 返回列表