找回密码

查看: 1451|回复: 0

[剧情] 仲夏夜惊魂/仲夏 Midsommar.2019.1080p.BluRay.REMUX.AVC.DTS-HD.MA.5.1-FGT 36.83GB

[复制链接]
蓝光币
2039
发表于 2019-9-30 16:29:03 | 显示全部楼层 |阅读模式


◎译  名 仲夏夜惊魂 / 仲夏 / 仲夏噩梦 / 仲夏节 / 仲夏魇(台)
◎片  名 Midsommar
◎年  代 2019
◎产  地 美国
◎类  别 剧情 / 悬疑 / 惊悚 / 可骇
◎语  言 英语 / 瑞典语
◎上映日期 2019-07-03(美国)
◎IMDb评分  7.6/10 from 38153 users
◎IMDb链接  http://www.imdb.com/title/tt8772262
◎豆瓣评分 7.2/10 from 1759 users
◎豆瓣链接 https://movie.douban.com/subject/30288638/
◎片  长 147分钟
◎导  演 阿里·艾斯特 Ari Aster
◎编  剧 阿里·艾斯特 Ari Aster
◎主  演 弗洛伦斯·皮尤 Florence Pugh
       杰克·莱诺 Jack Reynor
       威尔·保尔特 Will Poulter
       威廉·杰克森·哈珀 William Jackson Harper
       朱莉娅·拉格纳森 Julia Ragnarsson
       伯恩·安德森 Bj?rn Andrésen
       安娜·阿斯特罗姆 Anna ?str?m
       亨里克·诺伦 Henrik Norlén
       丽芙·姆琼斯 Liv Mj?nes
       路易丝·彼得霍夫 Louise Peterhoff
       埃洛拉·托尔基亚 Ellora Torchia
       贡内尔·弗雷德 Gunnel Fred
       安琪·拉尔森 Anki Larsson
       拉斯·瓦林格 Lars V?ringer
       马茨·布洛姆格伦 Mats Blomgren
       安德斯·贝克曼 Anders Beckman

◎标  签 可骇 | 惊悚 | 美国 | 悬疑 | 2019 | A24 | 宗教 | 剧情
◎简  介  
  杰克·莱诺、威尔·保尔特加盟阿里·艾斯特([遗传恶运])执导的可骇新片,主演弗洛伦斯·皮尤。故事报告皮尤、莱诺饰演的一对情侣来到瑞典乡下加入一个夏日节日活动,没想到全部活动都朝着暴力、诡异的偏向成长。[遗传恶运]已成为A24出品最卖座影片,新片仍由A24出品,今朝正在布达佩斯拍摄。
  1. Video
  2. ID                                       : 1
  3. Format                                   : AVC
  4. Format/Info                              : Advanced Video Codec
  5. Format profile                           : [email protected]
  6. Format settings                          : CABAC / 4 Ref Frames
  7. Format settings, CABAC                   : Yes
  8. Format settings, Reference frames        : 4 frames
  9. Codec ID                                 : V_MPEG4/ISO/AVC
  10. Duration                                 : 2 h 27 min
  11. Bit rate mode                            : Variable
  12. Bit rate                                 : 32.5 Mb/s
  13. Maximum bit rate                         : 37.0 Mb/s
  14. Width                                    : 1 920 pixels
  15. Height                                   : 1 080 pixels
  16. Display aspect ratio                     : 16:9
  17. Frame rate mode                          : Constant
  18. Frame rate                               : 23.976 (24000/1001) FPS
  19. Color space                              : YUV
  20. Chroma subsampling                       : 4:2:0
  21. Bit depth                                : 8 bits
  22. Scan type                                : Progressive
  23. Bits/(Pixel*Frame)                       : 0.654
  24. Stream size                              : 33.4 GiB (91%)
  25. Title                                    : Midsommar.2019.1080p.BluRay.REMUX.AVC.DTS-HD.MA.5.1-FGT
  26. Language                                 : English
  27. Default                                  : No
  28. Forced                                   : No
  29. Audio
  30. ID                                       : 2
  31. Format                                   : DTS XLL
  32. Format/Info                              : Digital Theater Systems
  33. Commercial name                          : DTS-HD Master Audio
  34. Codec ID                                 : A_DTS
  35. Duration                                 : 2 h 27 min
  36. Bit rate mode                            : Variable
  37. Bit rate                                 : 3 331 kb/s
  38. Channel(s)                               : 6 channels
  39. Channel layout                           : C L R Ls Rs LFE
  40. Sampling rate                            : 48.0 kHz
  41. Frame rate                               : 93.750 FPS (512 SPF)
  42. Bit depth                                : 24 bits
  43. Compression mode                         : Lossless
  44. Stream size                              : 3.42 GiB (9%)
  45. Title                                    : Midsommar.2019.1080p.BluRay.REMUX.AVC.DTS-HD.MA.5.1-FGT
  46. Language                                 : English
  47. Default                                  : Yes
  48. Forced                                   : No
  49. Text #1
  50. ID                                       : 3
  51. Format                                   : UTF-8
  52. Codec ID                                 : S_TEXT/UTF8
  53. Codec ID/Info                            : UTF-8 Plain Text
  54. Duration                                 : 2 h 11 min
  55. Bit rate                                 : 40 b/s
  56. Count of elements                        : 1136
  57. Stream size                              : 38.9 KiB (0%)
  58. Title                                    : English-SRT
  59. Language                                 : English
  60. Default                                  : Yes
  61. Forced                                   : No
  62. Text #2
  63. ID                                       : 4
  64. Format                                   : PGS
  65. Muxing mode                              : zlib
  66. Codec ID                                 : S_HDMV/PGS
  67. Codec ID/Info                            : Picture based subtitle format used on BDs/HD-DVDs
  68. Duration                                 : 2 h 25 min
  69. Bit rate                                 : 27.5 kb/s
  70. Count of elements                        : 2900
  71. Stream size                              : 28.7 MiB (0%)
  72. Title                                    : English-PGS
  73. Language                                 : English
  74. Default                                  : No
  75. Forced                                   : No
  76. Text #3
  77. ID                                       : 5
  78. Format                                   : PGS
  79. Muxing mode                              : zlib
  80. Codec ID                                 : S_HDMV/PGS
  81. Codec ID/Info                            : Picture based subtitle format used on BDs/HD-DVDs
  82. Duration                                 : 2 h 25 min
  83. Bit rate                                 : 20.9 kb/s
  84. Count of elements                        : 2218
  85. Stream size                              : 21.7 MiB (0%)
  86. Title                                    : Spanish-PGS
  87. Language                                 : Spanish
  88. Default                                  : No
  89. Forced                                   : No
  90. Menu
  91. 00:00:00.000                             : en:Chapter 01
  92. 00:12:34.712                             : en:Chapter 02
  93. 00:18:06.877                             : en:Chapter 03
  94. 00:25:15.222                             : en:Chapter 04
  95. 00:33:35.722                             : en:Chapter 05
  96. 00:40:56.954                             : en:Chapter 06
  97. 00:49:23.669                             : en:Chapter 07
  98. 00:57:14.764                             : en:Chapter 08
  99. 01:05:52.740                             : en:Chapter 09
  100. 01:12:59.083                             : en:Chapter 10
  101. 01:20:37.040                             : en:Chapter 11
  102. 01:33:58.591                             : en:Chapter 12
  103. 01:41:34.171                             : en:Chapter 13
  104. 01:53:50.365                             : en:Chapter 14
  105. 02:02:22.960                             : en:Chapter 15
  106. 02:14:07.039                             : en:Chapter 16
复制代码






                                       
                                       

                                       
                                       
                                       




回复

使用道具 举报

懒得打字嘛,点击右侧快捷回复 【右侧内容,后台自定义】
您需要登录后才可以回帖 登录 | 立即加入

本版积分规则

Archiver| |网站地图

Copyright © 2024 Comsenz Inc. Powered by 蓝光电影网

本站内容由用户自主分享和转载自互联网,转载目的在于传递更多信息,并不代表本网赞同其观点和对其真实性负责。

如有侵权、违反国家法律政策行为,请联系我们,我们会第一时间及时清除和处理!

举报反馈邮箱:4k1080.com@gmail.com

快速回复 返回顶部 返回列表